<?xml version="1.0" standalone="no"?>
<!DOCTYPE svg PUBLIC "-//W3C//DTD SVG 1.1//EN" "http://www.w3.org/Graphics/SVG/1.1/DTD/svg11.dtd" >
<svg xmlns="http://www.w3.org/2000/svg">
<metadata>
This is a custom SVG webfont generated by Font Squirrel.
Copyright   : Copyright c Mrten Nettelbladt 2006 All rights reserved
Designer    : Mrten Nettelbladt
Foundry     : Mrten Nettelbladt
</metadata>
<defs>
<font id="webfontBrRlslYt" horiz-adv-x="851" >
<font-face units-per-em="2048" ascent="1638" descent="-410" />
<missing-glyph horiz-adv-x="393" />
<glyph unicode=" "  horiz-adv-x="393" />
<glyph unicode="&#x09;" horiz-adv-x="393" />
<glyph unicode="&#xa0;" horiz-adv-x="393" />
<glyph unicode="!" horiz-adv-x="409" d="M145 77.5q0 24.5 17.5 42t42 17.5t43 -17.5t18.5 -42t-18.5 -42t-43 -17.5t-42 17.5t-17.5 42zM166 385v819q0 39 39 39q16 0 28.5 -11t12.5 -28v-819q0 -16 -12.5 -27.5t-28.5 -11.5q-39 0 -39 39z" />
<glyph unicode="&#x22;" horiz-adv-x="720" d="M158 1040v205q0 39 39 39t39 -39v-205q0 -39 -39 -39t-39 39zM485 1040v205q0 39 39 39t39 -39v-205q0 -39 -39 -39t-39 39z" />
<glyph unicode="#" horiz-adv-x="937" d="M61 508q0 39 39 39h166v250h-166q-39 0 -39 38.5t39 38.5h166v371q0 39 39 39t39 -39v-371h250v371q0 39 39 39t39 -39v-371h166q39 0 39 -38.5t-39 -38.5h-166v-250h166q39 0 39 -39t-39 -39h-166v-412q0 -39 -39 -39t-39 39v412h-250v-412q0 -39 -39 -39t-39 39v412 h-166q-39 0 -39 39zM344 547h250v250h-250v-250z" />
<glyph unicode="$" d="M174 236q-16 35 14 55q35 18 54 -15q49 -82 135 -94q29 -4 33 -4h2q72 0 125 47q72 59 67 150q0 94 -72 147l-256 211q-94 74 -98 203q0 121 94 203q57 49 131 61v127q0 16 12.5 27.5t28.5 11.5q39 0 39 -39v-127h2q2 -2 4 -2q123 -23 183 -127q20 -33 -15 -55 q-29 -16 -53 14q-41 78 -129 90q-29 4 -31 4h-2q-68 0 -118 -45q-70 -55 -66 -143q0 -86 68 -141l258 -211q96 -78 100 -209q0 -131 -96 -209q-55 -49 -137 -64v-127q0 -39 -39 -38q-16 0 -28.5 11t-12.5 27v127q-4 0 -6 2q-130 23 -191 132z" />
<glyph unicode="%" horiz-adv-x="1214" d="M100 1061q0 92 64.5 156.5t157 64.5t157 -64.5t64.5 -156.5t-64.5 -156.5t-157 -64.5t-157 64.5t-64.5 156.5zM174 1060.5q0 -61.5 43 -104.5t104.5 -43t104.5 43t43 104.5t-43 104.5t-104.5 43t-104.5 -43t-43 -104.5zM284 44q-5 15 3 30l573 1188q6 16 21.5 21t29.5 -3 q16 -6 21.5 -21.5t-2.5 -29.5l-574 -1188q-6 -16 -21.5 -21.5t-29.5 3.5q-16 6 -21 21zM674 242q0 92 64.5 156.5t156.5 64.5t156.5 -64.5t64.5 -156.5t-64.5 -157t-156.5 -65t-156.5 65t-64.5 157zM748 241.5q0 -61.5 43 -104.5t104 -43t104 43t43 104.5t-43 104.5t-104 43 t-104 -43t-43 -104.5z" />
<glyph unicode="&#x26;" horiz-adv-x="1009" d="M129 258q-20 117 55 219l176 230l-151 196l-2 2q-80 125 -10 254q37 61 96 95t127 30q68 -2 125 -40t86 -99q29 -63 21.5 -131t-48.5 -123l-143 -184l168 -218l76 -98l81 137q8 14 23.5 18.5t30.5 -5.5q33 -18 14 -54l-98 -163l170 -222q23 -31 -6 -55t-56 6l-151 199 l-58 -96q-63 -106 -184 -131q-119 -25 -221 43q-103 71 -121 190zM207 270q12 -86 88 -137q72 -51 160 -33q84 18 133 97l71 120l-94 123l-153 201l-164 -211q-55 -76 -41 -160zM266 1120q-49 -88 6 -170l140 -180l129 170q63 80 20 170q-43 92 -145 96q-101 4 -150 -86z " />
<glyph unicode="'" horiz-adv-x="393" d="M156 1040v205q0 16 12 27.5t29 11.5q39 0 39 -39v-205q0 -39 -39 -39q-16 0 -28.5 11.5t-12.5 27.5z" />
<glyph unicode="(" horiz-adv-x="548" d="M141 651q0 211 68 408q68 203 201 375q27 31 55 6q33 -27 8 -56q-125 -160 -190 -350q-63 -178 -63.5 -383t63.5 -383q66 -195 190 -350q25 -31 -8 -55q-29 -25 -55 6q-133 172 -201 375q-68 196 -68 407z" />
<glyph unicode=")" horiz-adv-x="550" d="M76 -61q125 156 190 350q63 190 63.5 382.5t-63.5 383.5q-66 190 -190 350q-25 29 6 55q31 23 55 -6q133 -174 203 -375q68 -197 68 -407.5t-68 -407.5q-70 -201 -203 -375q-25 -29 -55 -6q-29 25 -6 56z" />
<glyph unicode="*" d="M127 766q-18 33 14 51l211 121l-211 121q-33 18 -14 51q8 14 23.5 18.5t27.5 -4.5l211 -120v241q0 37 37 37t37 -37v-241l211 120q33 18 51 -14.5t-14 -50.5l-209 -121l209 -121q33 -18 14.5 -51t-51.5 -14l-211 120v-241q0 -37 -37 -37t-37 37v241l-211 -120 q-12 -8 -27.5 -4t-23.5 18z" />
<glyph unicode="+" d="M141 590q0 39 39 39h207v207q0 39 39 38.5t39 -38.5v-207h207q39 0 39 -39t-39 -39h-207v-207q0 -39 -39 -39t-39 39v207h-207q-39 0 -39 39z" />
<glyph unicode="," horiz-adv-x="393" d="M127 98q0 37 37 37h65q37 0 37 -37v-98q0 -96 -88 -133q-33 -14 -49 20q-14 33 21 50q43 14 43 63v61h-29q-37 0 -37 37z" />
<glyph unicode="-" d="M139 589.5q0 16.5 12.5 28t28.5 11.5h492q39 0 39 -39t-39 -39h-492q-16 0 -28.5 11t-12.5 27.5z" />
<glyph unicode="." horiz-adv-x="393" d="M137 77.5q0 24.5 17.5 42t42 17.5t42 -17.5t17.5 -42t-17.5 -42t-42 -17.5t-42 17.5t-17.5 42z" />
<glyph unicode="/" d="M143 -10l492 1351q16 35 51 23q37 -12 23 -51l-492 -1352q-10 -37 -49 -22q-35 12 -25 51z" />
<glyph unicode="0" d="M139 303v696q0 119 84 202t203 83q117 0 201 -83t84 -202v-696q0 -119 -84 -202t-201 -83q-119 0 -203 83t-84 202zM219 303q0 -86 60.5 -146.5t146.5 -60.5q84 0 144.5 60.5t60.5 146.5v696q0 86 -60.5 146.5t-144.5 60.5q-86 0 -146.5 -60.5t-60.5 -146.5v-696z" />
<glyph unicode="1" d="M201 971q-25 29 0 57l245 246q20 18 43 8q25 -8 25 -37v-1188q0 -39 -39 -39t-39 39v1094l-180 -180q-10 -10 -27 -10q-14 0 -28 10z" />
<glyph unicode="2" d="M154 45q-8 18 0 39l430 819q39 76 14 156q-23 82 -98 121q-70 41 -154 18q-80 -20 -123 -96q-25 -31 -55 -15q-31 20 -14 56q59 96 170 131q115 33 215 -25q100 -59 135 -167.5t-21 -215.5l-180 -344l-126 -239q-81 -152 -93 -179h393q39 0 39 -38.5t-39 -38.5h-459 q-22 0 -34 18z" />
<glyph unicode="3" d="M125 160q-16 35 14 55q35 16 56 -14q35 -61 99 -88t132 -9q68 16 111 71.5t43 127.5v123q0 86 -60.5 146.5t-146.5 60.5q-39 0 -39 39t39 39q86 0 146.5 60t60.5 147v81q0 70 -43 126.5t-111 72.5q-68 18 -132.5 -8.5t-98.5 -87.5q-20 -31 -56 -15q-31 20 -14 56 q49 84 138 120.5t183 10.5q94 -25 152.5 -100.5t58.5 -174.5v-81q0 -78 -38.5 -143.5t-102.5 -102.5q63 -37 102 -102.5t39 -143.5v-123q0 -98 -58 -174t-153 -102q-94 -25 -183 12t-138 121z" />
<glyph unicode="4" d="M115 356l286 901q10 35 50 25q27 -10 26 -37q0 -10 -2 -12l-125 -391l-85 -269q-52 -168 -60 -190h317v248q0 39 39 39t39 -39v-248h125q39 0 39 -39t-39 -39h-125v-248q0 -39 -39 -39t-39 39v248h-370q-20 0 -33 17q-10 16 -4 34z" />
<glyph unicode="5" d="M172 651v586q0 39 39 39h426q39 0 39 -39t-39 -39h-387v-444q113 86 248 49q94 -25 152.5 -100.5t58.5 -174.5v-225q0 -98 -58.5 -174t-152.5 -102q-94 -25 -183.5 12t-136.5 121q-20 33 15 55q29 16 53 -14q35 -61 99.5 -88t131.5 -9q68 16 111 71.5t43 127.5v225 q0 70 -43 126.5t-111 72.5q-68 18 -132 -8.5t-99 -87.5q-18 -25 -45 -19q-29 10 -29 39z" />
<glyph unicode="6" d="M160 303v696q0 98 58 174t153 101q94 27 183 -10t138 -121q16 -35 -14 -56q-31 -16 -55 15q-35 61 -99.5 88t-132.5 8q-68 -16 -110.5 -72.5t-42.5 -126.5v-294q88 88 206.5 88t201.5 -83t83 -202v-205q0 -119 -83 -202t-201.5 -83t-201.5 83t-83 202zM238 303 q0 -86 61 -146.5t145 -60.5q86 0 146.5 60.5t60.5 146.5v205q0 86 -60.5 146.5t-146.5 60.5q-84 0 -145 -60.5t-61 -146.5v-205z" />
<glyph unicode="7" d="M135 1073v164q0 39 39 39h492q23 0 30 -14q10 -14 9 -35l-287 -1180q-10 -39 -47 -29q-31 6 -31 39q0 6 2 9l129 532l145 600h-403v-125q0 -39 -39 -39t-39 39z" />
<glyph unicode="8" d="M141 303v123q0 78 39 143.5t103 102.5q-63 37 -102.5 102.5t-39.5 143.5v81q0 119 84 202t201 83q119 0 203 -83t84 -202v-81q0 -78 -39 -143.5t-103 -102.5q63 -37 102.5 -102.5t39.5 -143.5v-123q0 -119 -84 -202t-203 -83q-117 0 -201 83t-84 202zM221 303 q0 -86 60.5 -146.5t144.5 -60.5q86 0 146.5 60.5t60.5 146.5v123q0 86 -60.5 146.5t-146.5 60.5q-84 0 -144.5 -60.5t-60.5 -146.5v-123zM221 918q0 -86 60.5 -146.5t144.5 -60.5q86 0 146.5 60t60.5 147v81q0 86 -60.5 146.5t-146.5 60.5q-84 0 -144.5 -60.5t-60.5 -146.5 v-81z" />
<glyph unicode="9" d="M123 795v204q0 119 84 202t201 83q119 0 202.5 -83t83.5 -202v-696q0 -98 -59.5 -174t-153.5 -102q-92 -25 -182 12t-137 121q-16 35 14 55q35 18 53 -14q35 -61 99.5 -88t132.5 -9q68 16 110.5 71.5t42.5 127.5v295q-82 -88 -206 -88q-117 0 -201 83t-84 202zM203 795 q0 -86 60.5 -146.5t144.5 -60.5q86 0 146 60.5t60 146.5v204q0 86 -60 146.5t-146 60.5q-84 0 -144.5 -60.5t-60.5 -146.5v-204z" />
<glyph unicode=":" horiz-adv-x="393" d="M137 77.5q0 24.5 17.5 42t42.5 17.5q27 0 44 -17.5t17 -42t-17.5 -42t-43.5 -17.5q-25 0 -42.5 17.5t-17.5 42zM137 856q0 25 17.5 42t42.5 17q27 0 44 -17t17 -42t-17.5 -42t-43.5 -17q-25 0 -42.5 17t-17.5 42z" />
<glyph unicode=";" horiz-adv-x="393" d="M127 98q0 37 37 37h65q37 0 37 -37v-98q0 -96 -88 -133q-33 -14 -49 20q-14 33 21 50q43 14 43 63v61h-29q-37 0 -37 37zM137 856q0 25 17.5 42t42 17t42 -17t17.5 -42t-17.5 -42t-42 -17t-42 17t-17.5 42z" />
<glyph unicode="&#x3c;" d="M125 589.5q0 18.5 12 31.5l492 409q31 23 55 -6q10 -10 10 -25q0 -18 -14 -30l-455 -379l455 -379q14 -12 14 -31q0 -14 -10 -24q-25 -29 -55 -6l-492 409q-12 12 -12 30.5z" />
<glyph unicode="=" d="M141 426q0 39 39 39h492q39 0 39 -39t-39 -39h-492q-39 0 -39 39zM141 754q0 39 39 39h492q39 0 39 -39t-39 -39h-492q-39 0 -39 39z" />
<glyph unicode="&#x3e;" d="M158 180q0 18 14 31l455 379l-455 379q-14 12 -14 30q0 16 8 25q27 31 55 6l492 -409q14 -12 14 -31t-14 -31l-492 -409q-29 -25 -55 6q-8 8 -8 24z" />
<glyph unicode="?" horiz-adv-x="731" d="M90 1143q63 113 191 135q127 27 229 -51q100 -80 110.5 -207t-81.5 -221l-103 -105q-59 -59 -59 -145v-164q0 -16 -12.5 -27.5t-28.5 -11.5q-39 0 -39 39v164q0 119 82 201l104 104q68 72 60 160q-10 96 -82 149q-68 55 -164 39q-92 -23 -139 -100q-18 -33 -54 -15 q-32 27 -14 56zM276 77.5q0 24.5 17.5 42t42 17.5t43 -17.5t18.5 -42t-18.5 -42t-43 -17.5t-42 17.5t-17.5 42z" />
<glyph unicode="@" horiz-adv-x="1564" d="M152 283v368q0 262 186 445q182 186 444 186q264 0 447 -186q184 -184 184 -445v-381q0 -102 -70.5 -171.5t-171.5 -69.5h-409q-100 0 -171 69.5t-71 171.5q0 98 72 170t170 72h168v164q0 49 -29 90t-76 61q-102 39 -182 -36q-10 -10 -27 -11q-14 0 -24 10.5t-10 27 t10 26.5q55 51 124.5 65.5t137.5 -14.5t109 -88t41 -131v-574h167q72 0 120 48.5t48 119.5v381q0 231 -161 393q-168 164 -396 164q-229 0 -393 -163.5t-164 -393.5v-368q0 -227 164 -396q162 -162 393 -161h226q16 0 26 -11.5t10 -25.5q0 -37 -36 -37h-226q-260 0 -444 184 q-186 183 -186 447zM594 270q0 -72 49 -120t119 -48h168v336h-168q-70 0 -119 -49t-49 -119z" />
<glyph unicode="A" horiz-adv-x="884" d="M76 68l327 1187q10 29 39 29q27 0 37 -29l328 -1187q2 -8 2 -16q0 -26 -29 -34q-8 -2 -15 -2q-26 0 -34 31q0 4 -8 30.5t-12 43.5q-6 20 -21.5 81.5t-27.5 102.5h-439q-12 -41 -28 -101l-23 -83q-4 -16 -12 -43t-8 -31q-8 -31 -33 -31q-7 0 -15 2q-31 8 -30 35q0 7 2 15z M246 383h393l-197 715z" />
<glyph unicode="B" horiz-adv-x="876" d="M166 66v1171q0 39 39 39h246q119 0 201.5 -83t82.5 -202v-73q0 -78 -39 -143.5t-102 -102.5q63 -37 102 -102.5t39 -143.5v-115q0 -119 -83 -201.5t-201 -82.5h-246q-39 0 -39 39zM244 104h207q84 0 145 60.5t61 146.5v115q0 86 -61 146.5t-145 60.5h-207v-529zM244 711 h207q84 0 145 60t61 147v73q0 86 -61 146.5t-145 60.5h-207v-487z" />
<glyph unicode="C" horiz-adv-x="788" d="M141 303v696q0 98 58.5 174t152.5 101q40 11 78 11q53 0 106 -21q89 -37 136 -121q8 -12 7 -23q0 -18 -22 -33q-35 -18 -53 15q-35 61 -99 88q-38 16 -77 16q-27 0 -55 -8q-68 -16 -111 -72.5t-43 -126.5v-696q0 -72 43 -127t111 -72q28 -8 55 -7q39 0 77 16q65 27 99 88 q18 33 53 14q22 -14 22 -32q0 -11 -7 -23q-47 -84 -136 -121q-53 -22 -109 -22q-37 0 -75 10q-94 27 -152.5 102.5t-58.5 173.5z" />
<glyph unicode="D" horiz-adv-x="876" d="M166 66v1171q0 39 39 39h246q119 0 201.5 -83t82.5 -202v-680q0 -119 -83 -201.5t-201 -82.5h-246q-39 0 -39 39zM244 104h207q86 0 146 60.5t60 146.5v680q0 86 -60 146.5t-146 60.5h-207v-1094z" />
<glyph unicode="E" horiz-adv-x="753" d="M166 66v1171q0 39 39 39h409q39 0 39 -39t-39 -39h-370v-487h329q39 0 39 -39t-39 -39h-329v-529h370q39 0 39 -38.5t-39 -38.5h-409q-39 0 -39 39z" />
<glyph unicode="F" horiz-adv-x="737" d="M166 66v1171q0 39 39 39h409q39 0 39 -39t-39 -39h-370v-487h329q39 0 39 -39t-39 -39h-329v-567q0 -39 -39 -39t-39 39z" />
<glyph unicode="G" horiz-adv-x="843" d="M141 303v696q0 98 59.5 174t151.5 101q40 11 78 11q53 0 106 -21q89 -37 138 -121q16 -35 -15 -56q-35 -18 -53 15q-35 61 -100 88q-39 16 -78 16q-27 0 -55 -8q-68 -16 -111 -72.5t-43 -126.5v-696q0 -86 61.5 -146.5t145.5 -60.5q86 0 146.5 60.5t60.5 146.5v289h-166 q-39 0 -39 39t39 39h205q39 0 39 -39v-328q0 -119 -83 -202t-202 -83q-117 0 -201 83t-84 202z" />
<glyph unicode="H" horiz-adv-x="901" d="M166 57v1188q0 39 39 39q16 0 28.5 -11t12.5 -28v-534h411v534q0 39 39 39q16 0 28.5 -11t12.5 -28v-1188q0 -16 -12 -27.5t-29 -11.5q-39 0 -39 39v576h-411v-576q0 -16 -12.5 -27.5t-28.5 -11.5q-39 0 -39 39z" />
<glyph unicode="I" horiz-adv-x="409" d="M166 57v1188q0 39 39 39q16 0 28.5 -11t12.5 -28v-1188q0 -16 -12.5 -27.5t-28.5 -11.5q-39 0 -39 39z" />
<glyph unicode="J" horiz-adv-x="681" d="M82 111q18 33 53 14q47 -29 103 -29q57 0 104 29q102 63 102 178v942q0 16 12.5 27.5t28.5 11.5q39 0 39 -39v-942q0 -164 -143 -248q-66 -37 -143 -37q-78 0 -142 37q-20 13 -20 33q0 11 6 23z" />
<glyph unicode="K" horiz-adv-x="862" d="M166 57v1188q0 39 39 39q16 0 28.5 -11t12.5 -28v-624l461 647q16 19 32 19q11 0 23 -9q19 -16 19 -32q0 -12 -11 -23l-328 -461l332 -688q3 -8 3 -16q0 -7 -2 -14q-5 -15 -19 -21q-12 -5 -22 -6q-21 0 -32 24l-311 647l-145 -203v-428q0 -16 -12.5 -27.5t-28.5 -11.5 q-39 0 -39 39z" />
<glyph unicode="L" horiz-adv-x="712" d="M164 66v1179q0 16 12 27.5t29 11.5q39 0 39 -39v-1141h370q39 0 39 -38.5t-39 -38.5h-409q-16 0 -28.5 11.5t-12.5 27.5z" />
<glyph unicode="M" horiz-adv-x="1064" d="M166 57v1188q0 33 31 39q5 1 9 1q20 0 34 -23l125 -265l92 -193q61 -130 75 -163l166 356l125 265q13 24 36 23q5 0 9 -1q31 -6 31 -39v-1188q0 -39 -39 -39t-39 39v1012l-162 -340l-92 -197q-10 -23 -34.5 -22.5t-36.5 22.5l-93 197l-159 340v-1012q0 -39 -39 -39 t-39 39z" />
<glyph unicode="N" horiz-adv-x="983" d="M166 57v1188q0 33 31 39q5 1 9 1q20 0 34 -23l206 -428q213 -449 293 -605v1016q0 39 39 39t39 -39v-1188q0 -33 -31 -39q-5 -1 -9 -1q-20 0 -34 24l-206 428l-293 604v-1016q0 -39 -39 -39t-39 39z" />
<glyph unicode="O" d="M141 303v696q0 119 83 202t202 83t202 -83t83 -202v-696q0 -119 -83 -202t-202 -83t-202 83t-83 202zM219 303q0 -86 60.5 -146.5t146.5 -60.5t146.5 60.5t60.5 146.5v696q0 86 -60.5 146.5t-146.5 60.5t-146.5 -60.5t-60.5 -146.5v-696z" />
<glyph unicode="P" horiz-adv-x="819" d="M166 57v1180q0 39 39 39h246q119 0 201.5 -83t82.5 -202v-114q0 -119 -83 -202t-201 -83h-207v-535q0 -39 -39 -39t-39 39zM244 670h207q86 0 146 60.5t60 146.5v114q0 86 -60 146.5t-146 60.5h-207v-528z" />
<glyph unicode="Q" d="M141 303v696q0 119 83 202t202 83t202 -83t83 -202v-696q0 -133 -109 -225l105 -180q6 -11 5 -21q0 -19 -20 -35q-13 -7 -23 -7q-19 0 -30 24l-107 180q-43 -20 -106 -21q-119 0 -202 83t-83 202zM219 303q0 -86 61.5 -146.5t145.5 -60.5q86 0 146.5 60.5t60.5 146.5v696 q0 86 -60.5 146.5t-146.5 60.5q-84 0 -145.5 -60.5t-61.5 -146.5v-696z" />
<glyph unicode="R" d="M166 57v1180q0 39 39 39h246q119 0 201.5 -83t82.5 -202v-114q0 -96 -56 -171t-144 -102l198 -532q4 -11 4 -20q0 -23 -26 -32q-11 -4 -20 -4q-23 0 -32 27l-204 549h-4h-207v-535q0 -39 -39 -39t-39 39zM244 670h207q86 0 146 60.5t60 146.5v114q0 86 -60 146.5 t-146 60.5h-207v-528z" />
<glyph unicode="S" horiz-adv-x="782" d="M121 166q-7 13 -7 24q0 19 23 29q29 16 53 -14q49 -84 144 -105q24 -5 46 -5q68 0 128 46q78 61 86 156q1 8 0 16q0 86 -62 152l-325 336q-81 83 -81 195q0 13 1 26q10 127 111 205q76 58 166 58q31 0 63 -7q129 -27 190 -135q16 -35 -14 -56q-35 -18 -53 15 q-47 78 -139 100q-22 4 -43 4q-69 0 -121 -43q-72 -53 -82 -147l-2 -24q0 -77 59 -136l328 -338q83 -83 83 -201q0 -13 -1 -26q-10 -131 -117 -213q-80 -61 -171 -61q-32 0 -65 8q-130 24 -198 141z" />
<glyph unicode="T" horiz-adv-x="778" d="M84 1237q0 39 39 39h532q16 0 28.5 -11.5t12.5 -27.5t-12 -27.5t-29 -11.5h-225v-1141q0 -16 -12 -27.5t-29 -11.5q-39 0 -39 39v1141h-227q-39 0 -39 39z" />
<glyph unicode="U" horiz-adv-x="868" d="M147 303v942q0 16 12.5 27.5t28.5 11.5q39 0 39 -39v-942q0 -86 60.5 -146.5t146.5 -60.5q84 0 144.5 60.5t60.5 146.5v942q0 16 12.5 27.5t28.5 11.5q39 0 39 -39v-942q0 -119 -84 -202t-201 -83q-119 0 -203 83t-84 202z" />
<glyph unicode="V" horiz-adv-x="917" d="M94 1235q-2 8 -2 14q0 25 31 33q8 2 15 2q24 0 32 -29l123 -444l83 -302q67 -243 85 -304l166 606l123 444q8 29 33 29q7 0 16 -2q29 -8 29 -32q0 -7 -3 -15l-327 -1188q-10 -29 -37 -29q-33 0 -39 29z" />
<glyph unicode="W" horiz-adv-x="1429" d="M102 1235q-1 6 -1 11q0 29 30 38q7 2 14 2q25 0 33 -33l103 -426l77 -312q55 -222 70 -290l35 149l56 233l54 220l103 426q6 31 39 31q31 0 37 -31l102 -426l78 -312q55 -222 69 -290l35 149l57 233l54 220l102 426q8 33 34 33q6 0 13 -2q31 -6 31 -33q0 -7 -2 -16 l-287 -1188q-10 -29 -37 -29q-33 0 -38 29l-103 426q-141 590 -145 604q-14 -66 -70 -290l-78 -314l-102 -426q-10 -29 -37 -29q-33 0 -39 29z" />
<glyph unicode="X" horiz-adv-x="864" d="M90 76l297 596l-276 555q-16 35 16 53q12 5 21 5q20 0 32 -21l252 -504l252 504q6 14 22 19q6 2 11 2q9 0 18 -5q24 -11 24 -32q0 -10 -5 -21l-279 -555l299 -596q5 -12 5 -22q0 -21 -23 -31q-9 -5 -18 -6q-6 0 -12 2q-15 5 -21 20l-273 545l-272 -545q-12 -22 -32 -22 q-10 0 -22 6q-22 12 -21 31q0 10 5 22z" />
<glyph unicode="Y" horiz-adv-x="823" d="M90 1227q-5 12 -5 21q0 20 21 32q12 5 22 5q20 0 32 -21l106 -211l146 -293l145 293l107 211q12 22 31 21q10 0 22 -5q22 -12 22 -32q0 -10 -6 -21l-282 -565v-605q0 -39 -39 -39t-39 39v605z" />
<glyph unicode="Z" horiz-adv-x="786" d="M109 66q0 12 2 14l219 522l153 364q88 214 97 232h-433q-39 0 -38.5 39t38.5 39h492q20 0 33 -16q6 -12 6 -23q0 -12 -2 -14l-219 -523l-154 -363l-96 -233h432q39 0 39 -38.5t-39 -38.5h-492q-20 0 -32 16q-6 13 -6 23z" />
<glyph unicode="[" horiz-adv-x="524" d="M166 -98v1499q0 39 39 39h205q39 0 39 -39t-39 -39h-166v-1421h166q39 0 39 -39t-39 -39h-205q-39 0 -39 39z" />
<glyph unicode="\" d="M143 1313q-10 39 25 51q37 14 49 -23l492 -1351q14 -39 -23 -51q-39 -14 -51 22z" />
<glyph unicode="]" horiz-adv-x="524" d="M76 -98q0 39 39 39h166v1421h-166q-39 0 -39 39t39 39h204q39 0 39 -39v-1499q0 -39 -39 -39h-204q-39 0 -39 39z" />
<glyph unicode="^" horiz-adv-x="1024" d="M160 903l323 369q10 12 29 12q20 0 29 -12l323 -369q27 -29 -4 -55q-14 -10 -29 -10q-16 0 -26 12l-129 147l-93 108l-71 81q-10 -14 -70 -80l-96 -109l-127 -147q-10 -12 -26 -12q-14 0 -29 10q-31 26 -4 55z" />
<glyph unicode="_" horiz-adv-x="1024" d="M-41 -229.5q0 16.5 12.5 28t28.5 11.5h1024q39 0 39 -39t-39 -39h-1024q-16 0 -28.5 11t-12.5 27.5z" />
<glyph unicode="`" horiz-adv-x="1024" d="M383 1311q27 27 51 2l205 -185q29 -27 4 -51q-27 -27 -53 -2l-205 185q-27 26 -2 51z" />
<glyph unicode="a" horiz-adv-x="720" d="M86 270.5q0 98.5 71.5 170t170.5 71.5h168v164q0 109 -103 151q-36 14 -68 15q-60 0 -110 -49q-10 -12 -27 -13q-16 0 -24 13q-10 10 -10 24q0 16 10 27q51 51 122 65q24 5 46 5q46 0 90 -19q68 -29 107.5 -88t39.5 -131v-610q0 -37 -37 -37h-204q-98 0 -170 71.5 t-72 170zM160 270.5q0 -69.5 48 -119t120 -49.5h168v336h-168q-72 0 -120 -49t-48 -118.5z" />
<glyph unicode="b" horiz-adv-x="794" d="M168 66v1220q0 37 37 37t37 -37v-381h168q98 0 169.5 -71.5t71.5 -169.5v-394q0 -98 -71.5 -169.5t-169.5 -71.5h-205q-37 0 -37 37zM242 102h168q70 0 119 49.5t49 118.5v394q0 70 -49.5 118.5t-118.5 48.5h-168v-729z" />
<glyph unicode="c" horiz-adv-x="671" d="M143 262v410q0 74 40 134t110 89q45 19 91 19q23 0 47 -5q71 -14 124 -67q10 -10 10 -27q0 -14 -10 -24.5t-27 -10.5q-14 0 -24 11q-52 51 -115 51q-33 0 -70 -15q-47 -20 -74.5 -62t-27.5 -93v-410q0 -51 27.5 -93t74.5 -63q37 -15 71 -15q62 0 114 52q10 10 24 11 q16 0 26.5 -10.5t10.5 -26.5q0 -14 -10 -25q-53 -53 -124 -67q-24 -5 -47 -5q-46 0 -91 19q-70 29 -110 89t-40 134z" />
<glyph unicode="d" horiz-adv-x="794" d="M143 270v394q0 98 72 169.5t170 71.5h168v381q0 37 37 37t37 -37v-1220q0 -37 -37 -37h-205q-98 0 -170 71.5t-72 169.5zM217 270q0 -70 49 -119t119 -49h168v729h-168q-70 0 -119 -49t-49 -118v-394z" />
<glyph unicode="e" horiz-adv-x="753" d="M143 262v410q0 98 72 169.5t170 71.5t170 -71.5t72 -169.5v-205q0 -37 -37 -37h-373v-168q0 -51 28.5 -93t76.5 -63q36 -15 68 -15q61 0 114 52q10 10 24 11q16 0 26.5 -10.5t10.5 -26.5q0 -14 -10 -25q-51 -53 -123 -67q-24 -5 -47 -5q-47 0 -92 19q-68 29 -109 89 t-41 134zM217 504h336v168q0 70 -49 119t-119 49t-119 -49.5t-49 -118.5v-168z" />
<glyph unicode="f" horiz-adv-x="606" d="M78 868q0 37 37 37h127v176q0 98 71.5 170t169.5 72q37 0 37 -37t-37 -37q-70 0 -119 -49t-49 -119v-176h168q37 0 37 -37t-37 -37h-168v-774q0 -37 -36.5 -37t-36.5 37v774h-127q-37 0 -37 37z" />
<glyph unicode="g" horiz-adv-x="786" d="M143 270v394q0 98 72 169.5t170 71.5h205q37 0 37 -37v-1015q0 -74 -40 -134.5t-110 -89.5q-45 -19 -91 -19q-23 0 -47 5q-71 14 -124 68q-10 10 -10 26q0 14 10 24.5t25 10.5q16 0 26 -10q52 -52 114 -52q34 0 71 15q47 20 74.5 62t27.5 94v176h-168q-98 0 -170 71.5 t-72 169.5zM217 270q0 -70 49 -119t119 -49h168v729h-168q-70 0 -119 -49t-49 -118v-394z" />
<glyph unicode="h" horiz-adv-x="802" d="M168 57v1229q0 37 37 37t37 -37v-381h168q98 0 169.5 -71.5t71.5 -169.5v-607q0 -37 -36.5 -37t-36.5 37v607q0 70 -49.5 118.5t-118.5 48.5h-168v-774q0 -37 -37 -37t-37 37z" />
<glyph unicode="i" horiz-adv-x="409" d="M147 1183.5q0 22.5 17.5 40t40.5 17.5q25 0 41 -17.5t16 -40t-16.5 -40t-40.5 -17.5q-23 0 -40.5 17.5t-17.5 40zM168 57v820q0 37 37 36.5t37 -36.5v-820q0 -37 -37 -37t-37 37z" />
<glyph unicode="j" horiz-adv-x="425" d="M-20 -352q0 37 36 37q72 0 120 49t48 119v1024q0 37 37 36.5t37 -36.5v-1024q0 -98 -71.5 -170t-170.5 -72q-36 0 -36 37zM164 1183.5q0 22.5 17.5 40t39.5 17.5q25 0 41.5 -17.5t16.5 -40t-16.5 -40t-41.5 -17.5q-23 0 -40 17.5t-17 40z" />
<glyph unicode="k" horiz-adv-x="778" d="M168 57v1229q0 37 37 37t37 -37v-817l385 432q27 27 53 2q14 -14 14 -27q0 -12 -12 -24l-262 -293l266 -483q7 -12 7 -22q0 -18 -21 -29q-10 -7 -20 -7q-16 0 -29 21l-254 463l-127 -144v-301q0 -37 -37 -37t-37 37z" />
<glyph unicode="l" horiz-adv-x="409" d="M162 199v1087q0 16 11 26.5t26 10.5q37 0 37 -37v-1087q0 -72 63 -109q21 -12 21 -29q0 -10 -7 -22q-12 -21 -29 -21q-10 0 -22 7q-100 61 -100 174z" />
<glyph unicode="m" horiz-adv-x="1212" d="M168 57v811q0 37 37 37h614q98 0 170 -71.5t72 -169.5v-607q0 -16 -11.5 -26.5t-25.5 -10.5q-37 0 -37 37v607q0 70 -49 118.5t-119 48.5h-168v-774q0 -16 -11 -26.5t-26 -10.5q-37 0 -36 37v774h-336v-774q0 -16 -11.5 -26.5t-25.5 -10.5q-37 0 -37 37z" />
<glyph unicode="n" horiz-adv-x="802" d="M168 57v811q0 37 37 37h205q98 0 169.5 -71.5t71.5 -169.5v-607q0 -37 -36.5 -37t-36.5 37v607q0 70 -49.5 118.5t-118.5 48.5h-168v-774q0 -37 -37 -37t-37 37z" />
<glyph unicode="o" horiz-adv-x="770" d="M143 262v410q0 98 72 169.5t170 71.5t170 -71.5t72 -169.5v-410q0 -98 -72 -170t-170 -72t-170 72t-72 170zM217 262q0 -70 49 -119t119 -49t119 49.5t49 118.5v410q0 70 -49 119t-119 49t-119 -49.5t-49 -118.5v-410z" />
<glyph unicode="p" horiz-adv-x="794" d="M168 -352v1220q0 37 37 37h205q98 0 169.5 -71.5t71.5 -169.5v-394q0 -98 -71.5 -169.5t-169.5 -71.5h-168v-381q0 -37 -37 -37t-37 37zM242 102h168q70 0 119 49.5t49 118.5v394q0 70 -49.5 118.5t-118.5 48.5h-168v-729z" />
<glyph unicode="q" horiz-adv-x="794" d="M143 270v394q0 98 72 169.5t170 71.5h205q37 0 37 -37v-1220q0 -37 -37 -37t-37 37v381h-168q-98 0 -170 71.5t-72 169.5zM217 270q0 -70 49 -119t119 -49h168v729h-168q-70 0 -119 -49t-49 -118v-394z" />
<glyph unicode="r" horiz-adv-x="612" d="M168 57v811q0 37 37 37h205q63 0 120 -33q21 -12 21 -28q0 -9 -6 -21q-18 -33 -51 -14q-41 23 -84 22h-168v-774q0 -37 -37 -37t-37 37z" />
<glyph unicode="s" horiz-adv-x="673" d="M125 135q-7 12 -7 22q0 18 21 29q33 18 51 -14q39 -68 111 -76q14 -2 28 -2q57 0 101 41q50 46 50 111q0 7 -1 14q-2 74 -65 117l-191 135q-84 59 -94 166v15q0 95 72 163q62 58 143 58q19 0 39 -3q104 -16 158 -108q18 -35 -13 -51q-33 -18 -51 14q-37 63 -104 72 q-12 2 -25 1q-55 0 -98 -38q-47 -42 -48 -108q0 -5 1 -11q6 -72 63 -111l191 -133q86 -61 96 -174q1 -12 1 -23q0 -94 -75 -161q-65 -60 -151 -60q-19 0 -39 3q-115 24 -164 112z" />
<glyph unicode="t" horiz-adv-x="606" d="M78 868q0 37 37 37h127v381q0 37 36.5 37t36.5 -37v-381h168q37 0 37 -37t-37 -37h-168v-569q0 -70 49.5 -119t118.5 -49q37 0 37 -37t-37 -37q-98 0 -169.5 72t-71.5 170v569h-127q-37 0 -37 37z" />
<glyph unicode="u" horiz-adv-x="802" d="M152 270v607q0 37 36.5 36.5t36.5 -36.5v-607q0 -70 49.5 -119t118.5 -49h168v775q0 37 37 36.5t37 -36.5v-811q0 -37 -37 -37h-205q-98 0 -169.5 71.5t-71.5 169.5z" />
<glyph unicode="v" horiz-adv-x="757" d="M98 866q-3 9 -3 16q0 22 28 29q9 3 16 3q22 0 29 -27l86 -287q23 -68 46 -147l47 -161q24 -81 32 -106q39 147 125 414l86 287q8 28 29 27q7 0 16 -3q28 -8 28 -29q0 -7 -4 -16l-245 -819q-6 -27 -35 -27t-35 27z" />
<glyph unicode="w" horiz-adv-x="1101" d="M104 868q-2 7 -2 14q0 22 29 29q8 2 14 3q23 0 31 -29l66 -264q47 -211 102 -412q41 180 102 412l68 264q6 29 35 28q27 0 37 -28l65 -264q47 -211 103 -412q41 180 102 412l68 264q8 29 31 29q6 0 14 -3q29 -10 29 -30q0 -6 -3 -13l-204 -819q-10 -29 -37 -29 q-29 0 -35 29l-68 264q-61 231 -102 412q-55 -201 -103 -412l-65 -264q-10 -29 -37 -29q-29 0 -35 29z" />
<glyph unicode="x" horiz-adv-x="737" d="M109 76l219 399l-211 383q-18 33 14 51q10 7 20 7q16 0 29 -21l189 -344l190 344q10 21 28 21q10 0 21 -7q33 -18 15 -51l-211 -383l219 -399q7 -12 6 -22q0 -18 -21 -29q-12 -7 -21 -7q-17 0 -28 21l-198 358l-197 -358q-13 -21 -30 -21q-9 0 -19 7q-21 12 -21 29 q0 10 7 22z" />
<glyph unicode="y" horiz-adv-x="755" d="M66 -352q0 37 36 37q55 0 101 32q43 33 61 86l76 254l-244 809q-10 33 25 45q8 2 15 3q24 0 32 -27l209 -701l211 701q8 27 31 27q7 0 16 -3q27 -9 27 -31q0 -6 -3 -14l-245 -819l-80 -264q-20 -70 -88 -125q-66 -47 -144 -47q-36 0 -36 37z" />
<glyph unicode="z" horiz-adv-x="704" d="M111 65.5q0 14.5 2 16.5l174 340q174 346 209 409h-349q-37 0 -36.5 37t36.5 37h410q20 0 31 -18q6 -10 6 -19q0 -4 -4 -16l-174 -340q-172 -326 -209 -410h350q14 0 25.5 -10t11.5 -26.5t-11.5 -26.5t-25.5 -10h-410q-25 0 -32 18q-4 4 -4 18.5z" />
<glyph unicode="{" horiz-adv-x="524" d="M59 672q0 39 39 39q51 0 88 35.5t37 89.5v409q0 86 58.5 144.5t144.5 58.5q39 0 39 -39t-39 -39q-53 0 -89 -37t-36 -88v-409q0 -100 -84 -164q84 -63 84 -164v-451q0 -53 36 -89t89 -36q39 0 39 -38.5t-39 -38.5q-86 0 -144.5 58t-58.5 144v451q0 51 -36.5 88t-88.5 37 q-39 0 -39 39z" />
<glyph unicode="|" horiz-adv-x="425" d="M184 -352v2048q0 39 39 39t39 -39v-2048q0 -39 -39 -39t-39 39z" />
<glyph unicode="}" horiz-adv-x="524" d="M57 -106.5q0 16.5 12.5 27.5t28.5 11q51 0 87 36t36 89v451q0 100 84 164q-84 63 -84 164v409q0 51 -35.5 88t-87.5 37q-16 0 -28.5 11.5t-12.5 27.5t12.5 27.5t28.5 11.5q82 0 142.5 -59.5t60.5 -143.5v-409q0 -53 36 -89t89 -36q39 0 39 -39t-39 -39q-53 0 -89 -37 t-36 -88v-451q0 -84 -60.5 -143t-142.5 -59q-16 0 -28.5 11t-12.5 27.5z" />
<glyph unicode="~" d="M119 516q55 82 147 96q96 16 170 -41l25 -18q51 -39 114 -27q61 8 97 64q23 29 51 10q31 -23 12 -51q-55 -82 -147 -96q-98 -16 -172 41l-25 18q-51 39 -112 27q-61 -8 -97 -64q-27 -31 -53 -10q-28 22 -10 51z" />
<glyph unicode="&#xa2;" d="M209 262v410q0 74 41 135t110 90q10 4 29 9t25 7v127q0 16 12 27.5t29 11.5q39 0 39 -39v-127q76 -12 133 -69q10 -10 10 -27q0 -14 -10 -29q-14 -10 -29 -10q-16 0 -27 10q-51 49 -116 50h-2q-31 0 -62 -13q-102 -43 -102 -153v-410q0 -111 102 -153q31 -12 62 -13h2 q68 0 116 49q10 10 27 11q14 0 29 -11q10 -14 10 -28q0 -16 -10 -27q-57 -57 -133 -70v-126q0 -39 -39 -39q-16 0 -28.5 11t-12.5 28v126q-6 2 -24.5 7.5t-29.5 9.5q-70 29 -110.5 90t-40.5 135z" />
<glyph unicode="&#xa3;" d="M100 59q-4 35 27 43q61 23 99 76t38 119v336h-125q-39 0 -39 39t39 39h125v329q0 84 50.5 148.5t130 87t157.5 -9t119 -103.5q18 -33 -16 -55q-29 -16 -54 14q-29 49 -80 70.5t-106 7.5q-53 -14 -88 -59t-35 -101v-329h207q39 0 39 -39t-39 -39h-207v-336 q0 -113 -74 -193h445q39 0 39 -38.5t-39 -38.5h-574q-33 -1 -39 32z" />
<glyph unicode="&#xa5;" d="M104 1227q-16 35 17 53q35 16 53 -16l107 -211l145 -293l145 293l107 211q18 33 53 16q33 -18 17 -53l-259 -516h191q39 0 39 -39t-39 -39h-215v-250h215q39 0 39 -39t-39 -39h-215v-248q0 -39 -39 -39t-39 39v248h-199q-39 0 -38.5 39t38.5 39h199v250h-199 q-39 0 -38.5 39t38.5 39h174z" />
<glyph unicode="&#xa9;" horiz-adv-x="1470" d="M102 651q0 262 187 449q184 184 446 184q264 0 449 -184q186 -190 186 -448.5t-186 -448.5q-184 -184 -449 -185q-262 0 -446 185q-187 186 -187 448zM182 651q0 -227 162 -393q162 -162 391 -162q231 0 393 162q162 166 162 393q0 229 -162 391q-160 164 -393 164 q-231 0 -391 -164q-162 -162 -162 -391zM532 508v287q0 70 42 124t110 72q66 16 129.5 -9.5t97.5 -84.5q20 -33 -14 -55q-35 -18 -53 14q-51 82 -139 59q-41 -10 -67 -44.5t-26 -75.5v-287q0 -43 26 -77t67 -44q88 -23 139 59q18 33 53 15q35 -23 14 -55q-35 -59 -98 -85 t-129 -10q-68 18 -110 72.5t-42 124.5z" />
<glyph unicode="&#xad;" d="M139 589.5q0 16.5 12.5 28t28.5 11.5h492q39 0 39 -39t-39 -39h-492q-16 0 -28.5 11t-12.5 27.5z" />
<glyph unicode="&#xae;" horiz-adv-x="1470" d="M102 651q0 262 187 449q184 184 446 184q264 0 449 -184q186 -190 186 -448.5t-186 -448.5q-184 -184 -449 -185q-262 0 -446 185q-187 186 -187 448zM182 651q0 -227 162 -393q162 -162 391 -162q231 0 393 162q162 166 162 393q0 229 -162 391q-160 164 -393 164 q-231 0 -391 -164q-162 -162 -162 -391zM553 344v606q0 39 39 39h164q86 0 145.5 -58.5t59.5 -144.5q0 -66 -38 -118t-100 -74l131 -232q16 -29 -14 -53q-35 -18 -53 15l-150 260h-104v-240q0 -16 -12.5 -27.5t-28.5 -11.5q-39 0 -39 39zM633 662h123q53 0 89 35.5t36 88.5 q0 51 -36 88t-89 37h-123v-249z" />
<glyph unicode="&#xb4;" horiz-adv-x="1024" d="M383 1077q-25 25 2 51l205 185q27 25 53 -2q25 -25 -2 -51l-205 -185q-26 -25 -53 2z" />
<glyph unicode="&#x2000;" horiz-adv-x="866" />
<glyph unicode="&#x2001;" horiz-adv-x="1734" />
<glyph unicode="&#x2002;" horiz-adv-x="866" />
<glyph unicode="&#x2003;" horiz-adv-x="1734" />
<glyph unicode="&#x2004;" horiz-adv-x="577" />
<glyph unicode="&#x2005;" horiz-adv-x="432" />
<glyph unicode="&#x2006;" horiz-adv-x="288" />
<glyph unicode="&#x2007;" horiz-adv-x="288" />
<glyph unicode="&#x2008;" horiz-adv-x="215" />
<glyph unicode="&#x2009;" horiz-adv-x="346" />
<glyph unicode="&#x200a;" horiz-adv-x="96" />
<glyph unicode="&#x2010;" d="M139 589.5q0 16.5 12.5 28t28.5 11.5h492q39 0 39 -39t-39 -39h-492q-16 0 -28.5 11t-12.5 27.5z" />
<glyph unicode="&#x2011;" d="M139 589.5q0 16.5 12.5 28t28.5 11.5h492q39 0 39 -39t-39 -39h-492q-16 0 -28.5 11t-12.5 27.5z" />
<glyph unicode="&#x2012;" d="M139 589.5q0 16.5 12.5 28t28.5 11.5h492q39 0 39 -39t-39 -39h-492q-16 0 -28.5 11t-12.5 27.5z" />
<glyph unicode="&#x2013;" horiz-adv-x="1024" d="M-39 590q0 39 39 39h1024q39 0 39 -39t-39 -39h-1024q-39 0 -39 39z" />
<glyph unicode="&#x2014;" horiz-adv-x="2048" d="M-39 590q0 39 39 39h2048q39 0 39 -39t-39 -39h-2048q-39 0 -39 39z" />
<glyph unicode="&#x2018;" horiz-adv-x="393" d="M125 1049v98q0 96 88 133q35 12 49 -20q14 -35 -18 -50q-43 -14 -43 -63v-62h28q37 0 37 -36.5t-37 -36.5h-65q-39 0 -39 37z" />
<glyph unicode="&#x2019;" horiz-adv-x="393" d="M125 1237q0 37 39 37h65q37 0 37 -37v-98q0 -96 -88 -133q-35 -12 -49 20q-14 35 18 49q43 14 43 64v61h-26q-39 0 -39 37z" />
<glyph unicode="&#x201c;" horiz-adv-x="759" d="M125 1049v98q0 96 88 133q33 14 49 -20q14 -33 -20 -50q-43 -14 -43 -63v-62h28q37 0 37 -36.5t-37 -36.5h-65q-37 0 -37 37zM494 1049v98q0 96 88 133q33 14 49 -20q14 -33 -21 -50q-43 -14 -43 -63v-62h29q37 0 37 -36.5t-37 -36.5h-66q-36 0 -36 37z" />
<glyph unicode="&#x201d;" horiz-adv-x="761" d="M127 1237q0 37 37 37h65q37 0 37 -37v-98q0 -96 -88 -133q-33 -14 -49 20q-14 33 21 49q43 14 43 64v61h-29q-37 0 -37 37zM496 1237q0 37 36 37h66q37 0 37 -37v-98q0 -96 -88 -133q-33 -14 -49 20q-14 33 20 49q43 14 43 64v61h-29q-36 0 -36 37z" />
<glyph unicode="&#x2022;" horiz-adv-x="524" d="M84 577.5q0 73.5 52 126t126 52.5t127 -52.5t53 -126t-53 -126t-127 -52.5t-126 52.5t-52 126zM156 577.5q0 -45.5 30.5 -77t75.5 -31.5t77 31.5t32 77t-32 77t-77 31.5t-75.5 -31.5t-30.5 -77z" />
<glyph unicode="&#x2026;" horiz-adv-x="1179" d="M121 77.5q0 24.5 17.5 42t41.5 17.5q27 0 44.5 -17.5t17.5 -42t-17.5 -42t-44.5 -17.5q-25 0 -42 17.5t-17 42zM530 77.5q0 24.5 17.5 42t42.5 17.5q27 0 44 -17.5t17 -42t-17.5 -42t-43.5 -17.5q-25 0 -42.5 17.5t-17.5 42zM940 77.5q0 24.5 17.5 42t41.5 17.5 q27 0 44.5 -17.5t17.5 -42t-17.5 -42t-44.5 -17.5q-25 0 -42 17.5t-17 42z" />
<glyph unicode="&#x202f;" horiz-adv-x="346" />
<glyph unicode="&#x205f;" horiz-adv-x="432" />
<glyph unicode="&#x20ac;" d="M61 487.5q0 16.5 12.5 27.5t28.5 11h123v250h-123q-16 0 -28.5 11.5t-12.5 27.5t12.5 27.5t28.5 11.5h123v145q0 98 59.5 174t153.5 101q92 27 181.5 -10t138.5 -121l20 -37q18 -35 -14 -53q-35 -18 -53 14l-21 35q-35 61 -99.5 88t-131.5 8q-68 -16 -111 -72.5 t-43 -126.5v-145h289q39 0 39 -39t-39 -39h-289v-250h207q39 0 39 -38.5t-39 -38.5h-207v-146q0 -72 43 -127t111 -72q68 -18 132 8.5t99 88.5l21 35q18 33 53 14q33 -18 14 -53l-20 -37q-47 -84 -137.5 -121t-182.5 -12q-94 27 -153.5 102.5t-59.5 173.5v146h-123 q-16 0 -28.5 11t-12.5 27.5z" />
<glyph unicode="&#x2122;" horiz-adv-x="1372" d="M80 1237q0 37 37 37h409q39 0 39 -37t-39 -37h-166v-569q0 -37 -38 -37q-37 0 -37 37v569h-168q-37 0 -37 37zM735 631v614q0 29 27 35q25 10 41 -12l71 -101l103 -145l104 145q12 16 36 52l34 49q18 23 43 12q27 -8 27 -35v-614q0 -37 -39 -37q-37 0 -37 37v497l-45 -60 q-33 -44 -47 -67l-24 -33q-15 -22 -21 -32q-8 -14 -31 -14q-16 0 -31 14q-6 10 -21 32l-24 33l-90 127v-497q0 -37 -39 -37q-37 0 -37 37z" />
<glyph unicode="&#xe000;" horiz-adv-x="915" d="M0 915h915v-915h-915v915z" />
<glyph unicode="&#xfb01;" horiz-adv-x="1015" d="M753 1183.5q0 22.5 17.5 40t40.5 17.5q25 0 41 -17.5t16 -40t-16.5 -40t-40.5 -17.5q-23 0 -40.5 17.5t-17.5 40zM774 57v820q0 37 37 36.5t37 -36.5v-820q0 -37 -37 -37t-37 37zM78 868q0 37 37 37h127v176q0 98 71.5 170t169.5 72q37 0 37 -37t-37 -37q-70 0 -119 -49 t-49 -119v-176h168q37 0 37 -37t-37 -37h-168v-774q0 -37 -36.5 -37t-36.5 37v774h-127q-37 0 -37 37z" />
<glyph unicode="&#xfb02;" horiz-adv-x="1015" d="M768 199v1087q0 16 11 26.5t26 10.5q37 0 37 -37v-1087q0 -72 63 -109q21 -12 21 -29q0 -10 -7 -22q-12 -21 -29 -21q-10 0 -22 7q-100 61 -100 174zM78 868q0 37 37 37h127v176q0 98 71.5 170t169.5 72q37 0 37 -37t-37 -37q-70 0 -119 -49t-49 -119v-176h168 q37 0 37 -37t-37 -37h-168v-774q0 -37 -36.5 -37t-36.5 37v774h-127q-37 0 -37 37z" />
<glyph unicode="&#xfb03;" horiz-adv-x="1622" d="M1359 1183.5q0 22.5 17.5 40t40.5 17.5q25 0 41 -17.5t16 -40t-16.5 -40t-40.5 -17.5q-23 0 -40.5 17.5t-17.5 40zM1380 57v820q0 37 37 36.5t37 -36.5v-820q0 -37 -37 -37t-37 37zM684 868q0 37 37 37h127v176q0 98 71.5 170t169.5 72q37 0 37 -37t-37 -37 q-70 0 -119 -49t-49 -119v-176h168q37 0 37 -37t-37 -37h-168v-774q0 -37 -36.5 -37t-36.5 37v774h-127q-37 0 -37 37zM78 868q0 37 37 37h127v176q0 98 71.5 170t169.5 72q37 0 37 -37t-37 -37q-70 0 -119 -49t-49 -119v-176h168q37 0 37 -37t-37 -37h-168v-774 q0 -37 -36.5 -37t-36.5 37v774h-127q-37 0 -37 37z" />
<glyph unicode="&#xfb04;" horiz-adv-x="1622" d="M1374 199v1087q0 16 11 26.5t26 10.5q37 0 37 -37v-1087q0 -72 63 -109q21 -12 21 -29q0 -10 -7 -22q-12 -21 -29 -21q-10 0 -22 7q-100 61 -100 174zM684 868q0 37 37 37h127v176q0 98 71.5 170t169.5 72q37 0 37 -37t-37 -37q-70 0 -119 -49t-49 -119v-176h168 q37 0 37 -37t-37 -37h-168v-774q0 -37 -36.5 -37t-36.5 37v774h-127q-37 0 -37 37zM78 868q0 37 37 37h127v176q0 98 71.5 170t169.5 72q37 0 37 -37t-37 -37q-70 0 -119 -49t-49 -119v-176h168q37 0 37 -37t-37 -37h-168v-774q0 -37 -36.5 -37t-36.5 37v774h-127 q-37 0 -37 37z" />
</font>
</defs>
</svg>
