<?xml version="1.0" standalone="no"?>
<!DOCTYPE svg PUBLIC "-//W3C//DTD SVG 1.1//EN" "http://www.w3.org/Graphics/SVG/1.1/DTD/svg11.dtd" >
<svg xmlns="http://www.w3.org/2000/svg">
<metadata>
This is a custom SVG webfont generated by Font Squirrel.
Copyright   : Copyright c 2005 by Jess Latham All rights reserved
Designer    : Jess Latham
Foundry     : Jess Latham
</metadata>
<defs>
<font id="webfontfMlsM5y1" horiz-adv-x="743" >
<font-face units-per-em="2048" ascent="1546" descent="-502" />
<missing-glyph horiz-adv-x="608" />
<glyph unicode=" "  horiz-adv-x="608" />
<glyph unicode="&#x09;" horiz-adv-x="608" />
<glyph unicode="&#xa0;" horiz-adv-x="608" />
<glyph unicode="!" horiz-adv-x="376" d="M141 39q0 18 13.5 31.5t33.5 13.5q18 0 33 -13.5t15 -31.5q0 -20 -14.5 -33.5t-33.5 -13.5q-20 0 -33.5 13.5t-13.5 33.5zM160 270v955q0 10 8 19t20 9q10 0 19.5 -9t9.5 -19v-955q0 -12 -9 -21t-20 -9q-28 -1 -28 30z" />
<glyph unicode="&#x22;" horiz-adv-x="483" d="M141 889v332q0 29 29 28.5t29 -28.5v-332q0 -29 -29 -29t-29 29zM285 889v332q0 29 28.5 28.5t28.5 -28.5v-332q0 -29 -28.5 -29t-28.5 29z" />
<glyph unicode="#" horiz-adv-x="937" d="M141 801q0 10 8.5 19t20.5 9h94l41 177h-135q-29 0 -29 26q0 29 29 29h147l39 164q4 20 27 20q29 0 29 -28q0 -10 -17 -79l-18 -77h252l39 164q4 20 26 20q29 0 29 -28q0 -16 -35 -156h80q29 0 29 -29q0 -27 -29 -26h-94l-41 -177h135q12 0 20.5 -9t8.5 -19 q0 -29 -29 -29h-147l-39 -162q-4 -23 -27 -22q-29 0 -29 28q0 16 35 156h-252l-39 -162q-4 -23 -26 -22q-29 0 -29 28q0 16 35 156h-80q-29 0 -29 29zM322 829h253l41 177h-254z" />
<glyph unicode="$" horiz-adv-x="997" d="M141 332q0 12 9.5 20t19.5 8q25 0 29 -28q0 -6 1 -26.5t3 -31.5q18 -131 129 -202q53 -35 127 -45v602q-145 47 -231.5 118.5t-86.5 202.5q0 129 93.5 216t224.5 91q-4 16 0 48t28.5 32t28.5 -32.5t0 -51.5q129 -14 208 -107t79 -222q0 -27 -29 -27q-20 0 -29 29 q-2 8 -4 33.5t-6 39.5q-45 172 -219 197v-526q340 -123 340 -373q0 -147 -95 -237.5t-245 -92.5v-211q0 -10 -8 -19t-21 -9q-10 0 -19 9t-9 19v213q-145 18 -231.5 117t-86.5 246zM199 950.5q0 -104.5 70.5 -163t189.5 -99.5v512q-106 -4 -183 -74.5t-77 -175zM516 25 q125 2 204 75.5t79 198.5q0 205 -283 309v-583z" />
<glyph unicode="%" horiz-adv-x="1497" d="M141 909q0 129 73 242t195.5 113t194.5 -113t72 -242t-72 -241.5t-194.5 -112.5t-195.5 112.5t-73 241.5zM199 909.5q0 -106.5 55 -202t156 -95.5q98 0 153 96.5t55 200.5q0 106 -55 201.5t-153 95.5q-100 0 -155.5 -95t-55.5 -201.5zM440 4q0 12 574 1210q6 16 26 17 q27 0 27 -29q0 -16 -571 -1210q-6 -16 -27 -17q-10 0 -19.5 8.5t-9.5 20.5zM821 295q0 129 72 240.5t194.5 111.5t195.5 -111.5t73 -240.5q0 -131 -73 -242.5t-195.5 -111.5t-194.5 111.5t-72 242.5zM877 295q0 -106 56 -201.5t154.5 -95.5t154.5 95t56 202q0 104 -56 200.5 t-154.5 96.5t-154.5 -96.5t-56 -200.5z" />
<glyph unicode="&#x26;" horiz-adv-x="1589" d="M141 217q0 72 33 137.5t101.5 128t112.5 95t126 88.5q-152 190 -152 333q0 121 92.5 198t217.5 77q111 0 180.5 -63.5t69.5 -172.5q0 -51 -21.5 -100t-55.5 -87t-77 -75t-86 -65l-84 -58q188 -211 582 -473q96 137 96 301q0 53 -19 135q-2 4 -2 11q0 10 8.5 19t20.5 9 q47 0 47 -174q0 -180 -102 -334q23 -16 98.5 -62t108.5 -71q12 -10 12 -24q0 -10 -8 -19.5t-19 -9.5q-8 0 -227 141q-96 -121 -249.5 -179t-323.5 -58q-143 0 -268.5 49t-176.5 158q-35 75 -35 145zM199 213q0 -104 69.5 -173t158.5 -93.5t191 -24.5q156 0 298.5 52.5 t230.5 158.5q-403 274 -596 490q-66 -43 -90.5 -60.5t-87 -68t-91 -86t-56 -90t-27.5 -105.5zM420 1001q0 -133 139 -303q29 16 63 40l67 47q34 24 65.5 53.5t56.5 60.5t39 66.5t14 72.5q0 86 -53 132.5t-139 46.5q-98 0 -175 -60t-77 -156z" />
<glyph unicode="'" horiz-adv-x="339" d="M141 889v332q0 29 29 28.5t29 -28.5v-332q0 -29 -29 -29t-29 29z" />
<glyph unicode="(" horiz-adv-x="630" d="M141 393q0 172 27 332q10 66 29.5 135.5t54.5 156.5t89 141t120 54q10 0 19 -9t9 -19q0 -12 -9 -20.5t-19 -8.5q-51 0 -96.5 -53t-74 -135t-45 -145.5t-24.5 -116.5q-23 -141 -22.5 -311.5t22.5 -311.5q8 -53 24.5 -116.5t45 -145.5t74 -135.5t96.5 -53.5q10 0 19 -8 t9 -18q0 -12 -9 -20.5t-19 -8.5q-66 0 -120 54.5t-89 140.5t-54.5 156.5t-29.5 135.5q-27 158 -27 330z" />
<glyph unicode=")" horiz-adv-x="630" d="M141 -395q0 27 29 26q51 0 96 54.5t74 135.5t45 145.5t25 115.5q23 141 22.5 311t-22.5 312q-8 51 -24.5 115.5t-45.5 145.5t-74 135t-96 54q-29 0 -29 29q0 10 8.5 19t20.5 9q63 0 118.5 -55t89.5 -140t54.5 -155.5t30.5 -136.5q27 -160 26.5 -332t-26.5 -330 q-10 -66 -30.5 -136t-54.5 -156t-88 -140.5t-120 -54.5q-29 0 -29 29z" />
<glyph unicode="*" horiz-adv-x="843" d="M141 725q0 16 13 25l227 151l-227 154q-12 10 -13 24q0 29 29 29q10 0 57 -31l107 -72q59 -42 61 -44v235q0 29 29 29t29 -29v-246q4 2 61 44t103.5 72t56.5 30q29 0 28 -29q0 -14 -12 -25l-209 -141l209 -139q12 -8 12 -25q0 -29 -28 -28q-10 0 -56.5 29.5t-103.5 71.5 t-61 44v-246q0 -29 -29 -28.5t-29 28.5v236q-2 -2 -61 -44l-107 -73q-47 -31 -57 -31q-29 0 -29 29z" />
<glyph unicode="+" horiz-adv-x="909" d="M141 657q0 29 29 29h256v256q0 29 28.5 29t28.5 -29v-256h256q29 0 29 -29q0 -10 -8 -19t-21 -9h-256v-256q0 -10 -8 -19.5t-20.5 -9.5t-20.5 9t-8 20v256h-256q-12 0 -20.5 9t-8.5 19z" />
<glyph unicode="," horiz-adv-x="397" d="M141 -139l25 57q25 55 29 78q-33 10 -33 45q0 18 14 32.5t32.5 14.5t32 -14.5t15.5 -32.5v-12q2 -41 -26.5 -119t-59.5 -78q-29 0 -29 29z" />
<glyph unicode="-" d="M141 664q0 29 29 28h405q27 0 27 -28q0 -10 -8 -19.5t-19 -9.5h-405q-12 0 -20.5 9.5t-8.5 19.5z" />
<glyph unicode="." horiz-adv-x="376" d="M141 39q0 18 13.5 31.5t33.5 13.5q18 0 33 -13.5t15 -31.5q0 -20 -14.5 -33.5t-33.5 -13.5q-20 0 -33.5 13.5t-13.5 33.5z" />
<glyph unicode="/" horiz-adv-x="700" d="M141 4q0 10 168 568l195 645q4 20 26 20q29 0 29 -29q0 -10 -167 -566l-195 -646q-4 -20 -27 -21q-29 0 -29 29z" />
<glyph unicode="0" horiz-adv-x="1110" d="M131 625q0 174 63.5 343t190.5 253q84 53 170 53t170 -53q127 -84 190.5 -253t63.5 -343q0 -176 -63.5 -344t-190.5 -254q-84 -53 -170 -53.5t-170 53.5q-127 86 -190.5 254t-63.5 344zM188 625q0 -162 57.5 -317.5t172.5 -231.5q63 -45 137 -45t137 45 q115 76 172.5 231.5t57.5 317.5q0 160 -57.5 316.5t-172.5 232.5q-66 43 -137.5 43t-136.5 -43q-115 -76 -172.5 -232.5t-57.5 -316.5z" />
<glyph unicode="1" horiz-adv-x="866" d="M268 1100q0 16 13 22q154 115 176 115q29 0 28 -29v-1149h84q29 0 29 -28q0 -10 -8 -19.5t-21 -9.5h-223q-12 0 -20.5 9t-8.5 20q0 29 29 28h82v1096q-2 -2 -25 -18l-41 -30q-18 -13 -37.5 -24.5t-27.5 -11.5q-29 0 -29 29z" />
<glyph unicode="2" horiz-adv-x="962" d="M131 905q0 147 101.5 252t248.5 105q145 0 247.5 -104.5t102.5 -252.5q0 -133 -63 -231.5t-155 -158.5l-183 -118q-92 -57 -160.5 -142t-74.5 -200h593q29 0 29 -28q0 -10 -8 -19.5t-21 -9.5h-624l-4 2h-6l-11 6l-6 10l-2 11q0 98 35 177t91 132t124 99l136 90 q69 44 125 93.5t91 121t35 161.5q0 125 -83 214t-208 89q-123 0 -208 -88t-85 -211q0 -29 -28.5 -29t-28.5 29z" />
<glyph unicode="3" horiz-adv-x="1009" d="M131 332q0 29 28.5 28.5t28.5 -28.5q0 -127 94.5 -216t221.5 -89q129 0 223 89t94 216t-94 216t-223 89q-27 0 -27 28.5t29 28.5q113 0 199 74t86 184.5t-86.5 184t-199 73.5t-199.5 -73.5t-87 -184.5q0 -29 -28.5 -28.5t-28.5 28.5q0 135 103.5 225.5t240.5 90.5 t239.5 -90.5t102.5 -225.5q0 -94 -55.5 -172t-145.5 -114q104 -41 168 -132.5t64 -201.5q0 -152 -111 -257.5t-264 -105.5q-152 0 -262.5 105.5t-110.5 257.5z" />
<glyph unicode="4" horiz-adv-x="983" d="M131 649v6l100 580q4 25 29 25q12 0 21.5 -8.5t7.5 -20.5v-4l-94 -549h452v553q0 29 29 29q10 0 19.5 -8.5t9.5 -20.5v-553h118q29 0 29 -29q0 -10 -8 -19t-21 -9h-118v-598q0 -12 -9.5 -20.5t-19.5 -8.5q-29 0 -29 29v598h-487q-12 0 -20.5 9t-8.5 19z" />
<glyph unicode="5" horiz-adv-x="972" d="M131 371v31q0 17 8 30.5t27 13.5q25 0 24 -32q0 -8 -1 -22.5t-1 -20.5q0 -137 83 -236.5t216 -99.5q135 0 216 119.5t81 263.5q0 141 -80.5 262t-216 121t-258.5 -119q-12 -12 -30 -6q-14 -6 -27.5 3t-11.5 26l57 497q4 25 29 25h536q10 0 19.5 -8.5t9.5 -20.5t-9 -20.5 t-20 -8.5h-512l-47 -411q121 100 264 100q160 0 257.5 -137t97.5 -303t-97.5 -303.5t-257.5 -137.5q-156 0 -256 117t-100 277z" />
<glyph unicode="6" horiz-adv-x="1013" d="M131 418q0 209 78 403.5t225 325.5q100 90 199 117h8q10 0 19.5 -8.5t9.5 -20.5q0 -18 -23 -27l-25 -10l-28 -11q-12 -5 -25 -13q-141 -80 -236 -235t-128 -329q115 166 303 166q160 0 267.5 -119.5t107.5 -279.5t-107.5 -278.5t-267.5 -118.5q-143 0 -247.5 100 t-123.5 244q-6 10 -6 94zM190 377q0 -135 91.5 -237.5t226.5 -102.5t226 101.5t91 238.5t-90 239.5t-227 102.5q-135 0 -226.5 -102.5t-91.5 -239.5z" />
<glyph unicode="7" horiz-adv-x="962" d="M131 1198q0 10 8 19.5t19 9.5h645q12 0 20 -9.5t8 -19.5q0 -8 -222 -592l-228 -600q-6 -18 -27 -18q-29 0 -28 28q0 14 434 1153h-600q-12 0 -20.5 9.5t-8.5 19.5z" />
<glyph unicode="8" horiz-adv-x="1009" d="M131 338q0 111 63.5 203t167.5 133q-88 37 -144 113.5t-56 170.5q0 135 103.5 225.5t240.5 90.5t239.5 -90t102.5 -226q0 -94 -56.5 -170.5t-144.5 -113.5q104 -41 168 -133t64 -203q0 -152 -111 -257.5t-264 -105.5q-152 0 -262.5 105.5t-110.5 257.5zM188 338 q0 -127 94.5 -216t221.5 -89q129 0 223 89t94 216t-94 216t-223 89q-127 0 -221.5 -89t-94.5 -216zM219 958.5q0 -110.5 87 -184.5t199.5 -74t199 74t86.5 184.5t-86.5 184.5t-199 74t-199.5 -74t-87 -184.5z" />
<glyph unicode="9" horiz-adv-x="1009" d="M131 901.5q0 151.5 110.5 257t262.5 105.5q162 0 268.5 -111t106.5 -274q0 -207 -95.5 -415t-248.5 -372q-86 -86 -119 -106q-6 -6 -17 -6q-29 0 -28 28q0 12 10 23q16 16 55 50t58 54q227 240 299 535q-113 -131 -289 -131q-152 0 -262.5 105.5t-110.5 257zM188 901 q0 -129 93.5 -217t222.5 -88t223 88t94 217q0 127 -94 215t-223 88q-127 0 -221.5 -88t-94.5 -215z" />
<glyph unicode=":" horiz-adv-x="376" d="M141 37q0 20 13.5 33.5t33.5 13.5q18 0 33 -13.5t15 -33.5q0 -18 -14.5 -32.5t-33.5 -14.5q-20 0 -33.5 14.5t-13.5 32.5zM141 623q0 18 13.5 31.5t33.5 13.5q18 0 33 -13.5t15 -31.5q0 -20 -14.5 -34t-33.5 -14q-20 0 -33.5 14t-13.5 34z" />
<glyph unicode=";" horiz-adv-x="397" d="M141 -139l25 57q25 55 29 78q-33 10 -33 45q0 18 14 32.5t32.5 14.5t32 -14.5t15.5 -32.5v-12q2 -41 -26.5 -119t-59.5 -78q-29 0 -29 29zM162 623q0 18 14 31.5t32.5 13.5t33 -13.5t14.5 -31.5q0 -20 -14.5 -34t-33 -14t-32.5 14t-14 34z" />
<glyph unicode="&#x3c;" horiz-adv-x="788" d="M141 668q0 16 13 24l448 299q8 6 16 6q12 0 20.5 -9t8.5 -19q0 -14 -12 -25l-422 -280l422 -283q12 -6 12 -23q0 -29 -29 -28q-10 0 -16 4l-448 301q-13 8 -13 33z" />
<glyph unicode="=" horiz-adv-x="909" d="M141 563q0 29 29 29h569q29 0 29 -29q0 -10 -8 -19t-21 -9h-569q-12 0 -20.5 9t-8.5 19zM141 778q0 10 8.5 19.5t20.5 9.5h569q12 0 20.5 -9.5t8.5 -19.5q0 -29 -29 -28h-569q-29 -1 -29 28z" />
<glyph unicode="&#x3e;" horiz-adv-x="788" d="M141 358q0 16 13 23l421 283l-421 280q-12 10 -13 25q0 10 8.5 19t20.5 9q6 0 16 -6l449 -299q12 -8 12 -24q0 -25 -12 -33l-449 -301q-6 -4 -16 -4q-29 -1 -29 28z" />
<glyph unicode="?" horiz-adv-x="987" d="M141 920q0 156 100.5 250t258.5 94q145 0 245.5 -90.5t100.5 -235.5q0 -43 -9.5 -82t-25.5 -67.5t-38.5 -56t-49.5 -50.5l-57 -47l-62 -47q-82 -63 -111.5 -127t-29.5 -166v-8q0 -47 -27 -47q-31 0 -30 41v14q0 117 34.5 191.5t128.5 146.5q41 29 81 61.5t71 63t49 77 t18 101.5q0 121 -83.5 195.5t-206.5 74.5q-129 0 -214 -75.5t-85 -202.5q0 -35 -27 -35q-31 0 -31 27zM385 37q0 20 14.5 33.5t32.5 13.5q20 0 33.5 -13.5t13.5 -33.5q0 -18 -13 -32.5t-34 -14.5q-18 0 -32.5 14.5t-14.5 32.5z" />
<glyph unicode="@" horiz-adv-x="1761" d="M141 358q0 283 158 505t426 317q117 41 238 41q285 0 471 -187.5t186 -470.5q0 -176 -61.5 -329.5t-190.5 -249.5q-90 -66 -186 -84q-8 -2 -25 -2q-41 0 -62.5 25.5t-21.5 66.5q0 29 21 157q-53 -78 -134 -126t-172 -48q-127 0 -205.5 89.5t-78.5 216.5 q0 154 111.5 277.5t265.5 123.5q88 0 158.5 -48t103.5 -132l20 143q2 25 33 25q10 0 17.5 -11.5t5.5 -21.5l-86 -623q-4 -16 -5 -22q0 -35 29 -35h14q129 25 221.5 126t131.5 225t39 257q0 258 -170 429t-430 171q-113 0 -218 -37q-250 -90 -398 -297.5t-148 -472.5 q0 -305 204.5 -511.5t509.5 -206.5q43 0 66 2q266 23 410 204q8 12 22 13q29 0 29 -29q0 -4 -4 -16q-74 -113 -223.5 -172.5t-301.5 -59.5q-330 0 -550 224t-220 554zM561 279q0 -104 62.5 -176t164.5 -72q131 0 226.5 106.5t95.5 237.5q0 104 -63.5 176t-165.5 72 q-131 0 -225.5 -106.5t-94.5 -237.5z" />
<glyph unicode="A" horiz-adv-x="1126" d="M131 14q0 25 404 1235q6 18 28.5 18.5t28.5 -18.5q0 -2 201.5 -614t201.5 -621q0 -10 -9 -19t-19 -9q-23 0 -29 20l-154 471h-442l-156 -471q-6 -20 -26 -20q-12 0 -20.5 9t-8.5 19zM360 535h406l-203 616z" />
<glyph unicode="B" horiz-adv-x="950" d="M141 20v1207q0 10 8.5 19t20.5 9h279q121 0 202.5 -94t81.5 -217q0 -84 -40 -158.5t-111 -115.5q104 -37 170.5 -128t66.5 -202q0 -145 -106.5 -248.5t-253.5 -103.5h-287q-12 0 -21.5 10t-9.5 22zM199 45h260q125 0 214 86t89 209t-89 209t-214 86h-260v-590zM199 692 h247q100 0 165 76t65 176t-64.5 177t-162.5 77h-250v-506z" />
<glyph unicode="C" horiz-adv-x="1042" d="M131 625q0 176 63.5 344t190.5 254q84 53 170 53q178 0 303 -195q53 -80 53 -108q0 -12 -9 -20.5t-19 -8.5q-18 0 -27 19q-125 256 -301 256q-74 0 -137 -45q-115 -76 -172.5 -232t-57.5 -317q0 -160 57.5 -316.5t172.5 -232.5q66 -43 137 -43q176 0 301 256q8 18 27 18 q10 0 19 -9t9 -19q0 -29 -53 -109q-123 -195 -303 -195q-86 0 -170 54q-127 84 -190.5 253t-63.5 343z" />
<glyph unicode="D" horiz-adv-x="995" d="M141 16v1205q0 10 9.5 20t21.5 10h295q133 0 227 -114.5t137 -264.5q33 -119 33 -252t-33 -251q-43 -150 -137 -263.5t-227 -113.5h-285q-8 -4 -12 -4q-12 0 -20.5 9t-8.5 19zM199 49h268q115 0 194.5 103.5t114.5 232.5q31 115 31 235.5t-31 235.5q-35 129 -114.5 233.5 t-194.5 104.5h-268v-1145z" />
<glyph unicode="E" horiz-adv-x="882" d="M141 23v1200q0 10 8.5 19t20.5 9h553q12 0 20.5 -9t8.5 -19q0 -29 -29 -29h-524v-496h342q12 0 20 -9t8 -19q0 -29 -28 -29h-342v-590h524q29 0 29 -28q0 -10 -8.5 -19.5t-20.5 -9.5h-553q-12 0 -20.5 9.5t-8.5 19.5z" />
<glyph unicode="F" horiz-adv-x="882" d="M141 20v1201q0 29 29 28h553q29 0 29 -28.5t-29 -28.5h-524v-496h342q29 0 28.5 -28.5t-28.5 -28.5h-342v-619q0 -10 -8.5 -19t-20.5 -9t-20.5 9t-8.5 19z" />
<glyph unicode="G" horiz-adv-x="1110" d="M131 629q0 174 63.5 343t190.5 253q84 53 170 53q178 0 303 -195q53 -80 53 -108q0 -10 -9 -19.5t-19 -9.5q-18 0 -27 19q-6 10 -21.5 40.5t-25.5 47.5q-104 168 -254 168q-72 0 -137 -43q-115 -76 -172.5 -233t-57.5 -316q0 -162 57.5 -318.5t172.5 -232.5 q66 -43 137 -43q125 0 212 109.5t124 248.5q25 94 29 207h-265q-29 0 -28 29q0 10 8 19t20 9h295q10 0 19.5 -9t9.5 -19q0 -176 -63.5 -344t-190.5 -254q-84 -53 -170 -53.5t-170 53.5q-127 86 -190.5 254t-63.5 344z" />
<glyph unicode="H" horiz-adv-x="935" d="M141 18v1209q0 29 29 28.5t29 -28.5v-537h538v537q0 29 29 28.5t29 -28.5v-1209q0 -10 -8.5 -19t-20.5 -9t-20.5 9t-8.5 19v615h-538v-615q0 -10 -8.5 -19t-20.5 -9t-20.5 9t-8.5 19z" />
<glyph unicode="I" horiz-adv-x="544" d="M131 35q0 29 29 28h84v1117h-84q-29 0 -29 28q0 10 8 19.5t21 9.5h225q10 0 19.5 -9t9.5 -20q0 -12 -9.5 -20t-19.5 -8h-84v-1117h84q10 0 19.5 -8t9.5 -20q0 -10 -9.5 -19.5t-19.5 -9.5h-225q-12 0 -20.5 9.5t-8.5 19.5z" />
<glyph unicode="J" horiz-adv-x="1112" d="M131 309q0 10 8 19.5t20.5 9.5t20.5 -9.5t8 -19.5q0 -115 85 -193.5t202 -78.5q158 0 223.5 89t65.5 255v795q0 6 2 10h-137q-29 0 -29 28.5t29 28.5h323q29 0 29 -28.5t-29 -28.5h-133q2 -6 2 -805q0 -401 -346 -401q-139 0 -241.5 95t-102.5 234z" />
<glyph unicode="K" horiz-adv-x="1003" d="M141 20v1209q0 10 8.5 19t20.5 9t20.5 -9t8.5 -19v-588l585 606q6 10 21 10q12 0 20.5 -9t8.5 -19q0 -12 -9 -21l-419 -436q8 -14 132 -210l229 -365q105 -170 105 -180.5t-9 -19.5t-19 -9q-16 0 -25 14l-454 727l-166 -172v-537q0 -29 -29 -29t-29 29z" />
<glyph unicode="L" horiz-adv-x="882" d="M141 29v1198q0 29 29 28.5t29 -28.5v-1170h524q12 0 20.5 -9t8.5 -19q0 -29 -29 -29h-553q-29 0 -29 29z" />
<glyph unicode="M" horiz-adv-x="1216" d="M141 16v1203q0 29 29 28q25 0 33 -26l405 -1106l410 1114q6 18 29 18q10 0 19 -8t9 -20v-1203q0 -12 -9 -20t-19 -8q-29 0 -29 28v1045l-379 -1032q0 -31 -29 -31q-20 0 -26 20l-385 1047v-1049q0 -29 -29 -29t-29 29z" />
<glyph unicode="N" horiz-adv-x="937" d="M141 16v1209q0 10 8.5 19t20.5 9q16 0 27 -16l542 -1094v1086q0 29 29 28.5t29 -28.5v-1209q0 -10 -8.5 -19t-20.5 -9q-18 0 -25 16l-544 1094v-1086q0 -29 -29 -29t-29 29z" />
<glyph unicode="O" horiz-adv-x="1110" d="M131 625q0 174 63.5 343t190.5 253q84 53 170 53t170 -53q127 -84 190.5 -253t63.5 -343q0 -176 -63.5 -344t-190.5 -254q-84 -53 -170 -53.5t-170 53.5q-127 86 -190.5 254t-63.5 344zM188 625q0 -162 57.5 -317.5t172.5 -231.5q63 -45 137 -45t137 45 q115 76 172.5 231.5t57.5 317.5q0 160 -57.5 316.5t-172.5 232.5q-66 43 -137.5 43t-136.5 -43q-115 -76 -172.5 -232.5t-57.5 -316.5z" />
<glyph unicode="P" horiz-adv-x="919" d="M141 16v1203v4q0 29 29 28h264q145 0 249.5 -103.5t104.5 -248.5t-104 -248.5t-250 -103.5h-235v-531q0 -10 -8.5 -19t-20.5 -9t-20.5 9t-8.5 19zM199 604h235q123 0 210 86t87 209t-87 209t-210 86h-235v-590z" />
<glyph unicode="Q" horiz-adv-x="1110" d="M131 623q0 174 63.5 343t190.5 253q78 53 170 53t170 -53q127 -84 190.5 -253t63.5 -343q0 -281 -129 -469q102 -129 102 -148q0 -29 -28 -29q-16 0 -23 13l-88 116q-115 -135 -258 -135q-86 0 -170 54q-127 86 -190.5 254t-63.5 344zM188 622.5q0 -159.5 57.5 -316 t172.5 -232.5q63 -45 137 -45q125 0 223 125q-113 137 -112 161q0 10 8 19.5t20 9.5q14 0 23 -12l96 -129q109 176 109 420q0 160 -57.5 316.5t-172.5 231.5q-66 43 -137.5 43t-136.5 -43q-115 -76 -172.5 -232.5t-57.5 -316z" />
<glyph unicode="R" horiz-adv-x="911" d="M141 18v1192v4q0 29 29 29h264q145 0 249.5 -102.5t104.5 -247.5q0 -119 -72.5 -213t-187.5 -125q8 -14 80 -149l135 -256q63 -121 64 -130q0 -29 -29 -28q-16 0 -24 14l-285 539q-23 -2 -270 -2v-525q0 -29 -29 -29t-29 29zM199 600h235q121 0 209 86t88 207 q0 123 -87 208t-210 85h-235v-586z" />
<glyph unicode="S" horiz-adv-x="983" d="M131 336q0 12 9.5 20.5t19.5 8.5q25 0 28 -29q0 -8 2.5 -26.5t2.5 -26.5q18 -137 131 -207q72 -49 178 -49q129 0 211 74.5t82 201.5q0 221 -330 328q-154 51 -244 122.5t-90 207.5q0 131 97.5 220t230.5 89q147 0 243.5 -95.5t96.5 -240.5q0 -29 -31 -29q-20 0 -29 29 q-2 6 -4 34.5t-6 45.5q-51 193 -260 196l-10 2h-6q-105 0 -184 -71q-81 -74 -81 -180q0 -61 25 -107.5t74 -78.5t90 -49t106 -40q369 -125 369 -383q0 -152 -98.5 -243t-249.5 -91q-164 0 -268.5 102.5t-104.5 264.5z" />
<glyph unicode="T" horiz-adv-x="950" d="M131 1208.5q0 28.5 29 28.5h631q29 0 28.5 -28.5t-28.5 -28.5h-287v-1155q0 -29 -29 -29t-29 29v1155h-286q-29 0 -29 28.5z" />
<glyph unicode="U" horiz-adv-x="1034" d="M141 326v905q0 10 8.5 19.5t20.5 9.5t20.5 -9.5t8.5 -19.5v-905q0 -139 89 -216t230 -77q143 0 230.5 75.5t87.5 217.5v905q0 10 9 19.5t19 9.5q12 0 20.5 -9.5t8.5 -19.5v-905q0 -166 -103.5 -258.5t-271.5 -92.5q-166 0 -271.5 93.5t-105.5 257.5z" />
<glyph unicode="V" horiz-adv-x="1126" d="M131 1223q0 29 29 28q25 0 26 -18l377 -1157l375 1157q6 18 29 18q10 0 19 -8t9 -20q0 -8 -198.5 -616.5t-204.5 -629.5q-6 -18 -28.5 -18t-28.5 18l-223 679q-181 559 -181 567z" />
<glyph unicode="W" horiz-adv-x="1720" d="M131 1225q0 10 8 19t21 9q20 0 28 -22l322 -1141l321 1141q6 20 29 20t29 -20l321 -1141l324 1141q4 23 27 22q12 0 20 -9t8 -19q0 -33 -350 -1245q-4 -20 -29 -21q-23 0 -28 21l-322 1140l-321 -1140q-6 -20 -29 -20.5t-29 20.5q-350 1212 -350 1245z" />
<glyph unicode="X" horiz-adv-x="991" d="M131 25q0 18 332 598l-194 338q-138 244 -138 258q0 29 29 28q18 0 24 -14l312 -553l309 553q8 14 26 14q10 0 19.5 -8t9.5 -20q0 -10 -74 -142l-164 -291q-91 -160 -94 -163l96 -167l161 -287q75 -134 75 -144q0 -12 -9 -20.5t-20 -8.5q-16 0 -26 14l-309 553l-312 -553 q-8 -14 -24 -14q-29 0 -29 29z" />
<glyph unicode="Y" horiz-adv-x="978" d="M131 1223q0 10 8 19t21 9q18 0 24 -16l305 -573l306 573q6 16 24 16q12 0 20.5 -9t8.5 -19.5t-74 -150.5l-163 -305q-89 -165 -93 -175v-572q0 -29 -28.5 -28.5t-28.5 28.5v574q-330 617 -330 629z" />
<glyph unicode="Z" horiz-adv-x="993" d="M131 39q0 8 97 179l207 360l228 391q118 203 121 209h-602q-12 0 -20 9t-8 19q0 29 28 29h652q29 0 28 -29q0 -8 -97 -179l-207 -359l-227 -392q-118 -203 -122 -208h604q12 0 20.5 -9.5t8.5 -19.5q0 -29 -29 -29h-653q-29 0 -29 29z" />
<glyph unicode="[" horiz-adv-x="544" d="M102 -381v1583q0 29 29 29h283q29 0 28 -29q0 -10 -8 -19t-20 -9h-254v-1526h254q12 0 20 -9.5t8 -19.5q0 -29 -28 -29h-283q-29 0 -29 29z" />
<glyph unicode="\" horiz-adv-x="622" d="M102 4q0 10 168 568l195 645q4 20 27 20q10 0 19 -8t9 -21q0 -10 -167 -566l-195 -646q-6 -20 -27 -21q-29 0 -29 29z" />
<glyph unicode="]" horiz-adv-x="544" d="M102 -381q0 10 8.5 19.5t20.5 9.5h256v1526h-256q-12 0 -20.5 9t-8.5 19q0 29 29 29h283q29 0 28 -29v-1583q0 -29 -28 -29h-283q-29 0 -29 29z" />
<glyph unicode="^" horiz-adv-x="696" d="M102 729q0 27 217 461q8 16 29 16t29 -16q217 -434 217 -461q0 -29 -29 -29q-18 0 -24 17l-193 401l-192 -401q-6 -16 -25 -17q-29 0 -29 29z" />
<glyph unicode="_" horiz-adv-x="1062" d="M141 -82h781v-29h-781v29z" />
<glyph unicode="`" horiz-adv-x="528" d="M141 1180q0 29 29 28q12 0 20 -8l189 -188q8 -12 8 -21q0 -29 -29 -28q-12 0 -20 8l-188 188q-9 9 -9 21z" />
<glyph unicode="a" horiz-adv-x="946" d="M131 329.5q0 143.5 94 250t236 106.5q90 0 165.5 -49t121.5 -129v137q0 10 8 19.5t20 9.5t20.5 -9.5t8.5 -19.5v-625q0 -29 -28.5 -28.5t-28.5 28.5v132q-45 -80 -121 -129.5t-166 -49.5q-141 0 -235.5 106.5t-94.5 250zM188 330q0 -119 78 -209t195 -90t194.5 90 t77.5 209t-77.5 209t-194.5 90t-195 -90t-78 -209z" />
<glyph unicode="b" horiz-adv-x="946" d="M141 14v1200q0 10 8.5 19.5t20.5 9.5t20.5 -9t8.5 -20v-712q43 82 119.5 131t166.5 49q141 0 235.5 -106.5t94.5 -250t-94 -250t-236 -106.5q-90 0 -166.5 48.5t-119.5 129.5v-133q0 -10 -8.5 -19t-20.5 -9t-20.5 9t-8.5 19zM211 325.5q0 -118.5 78 -208.5t196 -90 q117 0 195 90t78 208.5t-78 209t-194.5 90.5t-195.5 -90.5t-79 -209z" />
<glyph unicode="c" horiz-adv-x="872" d="M131 329.5q0 143.5 94 250t236 106.5q137 0 235 -104q41 -49 41 -66q0 -29 -28 -29q-12 0 -23 11q-80 131 -225 131q-117 0 -195 -90t-78 -209t78 -209t195 -90q66 0 129 35.5t94 91.5q8 18 27 18q31 0 30 -29q0 -8 -6 -16q-100 -158 -274 -158q-141 0 -235.5 106.5 t-94.5 250z" />
<glyph unicode="d" horiz-adv-x="946" d="M131 327.5q0 143.5 94 250t236 106.5q90 0 167 -49t120 -131v713q0 10 8 19t20 9t20.5 -9t8.5 -19v-1199q0 -29 -28.5 -28.5t-28.5 28.5v132q-43 -82 -120 -130.5t-167 -48.5q-141 0 -235.5 106.5t-94.5 250zM188 327.5q0 -118.5 78 -208.5t195 -90t194.5 90t77.5 208.5 t-77.5 209t-194.5 90.5t-195 -90.5t-78 -209z" />
<glyph unicode="e" horiz-adv-x="923" d="M131 329.5q0 143.5 94 250t235.5 106.5t237 -107.5t95.5 -248.5q0 -29 -31 -29h-572q10 -111 86 -190.5t185 -79.5q152 0 235 121q10 14 25 14q29 0 29 -29q0 -6 -5 -14q-41 -72 -118.5 -111t-165.5 -39q-141 0 -235.5 106.5t-94.5 250zM190 358h541q-10 111 -86 191 t-184.5 80t-184.5 -80t-86 -191z" />
<glyph unicode="f" horiz-adv-x="882" d="M131 671.5q0 28.5 29 28.5h131v334q0 102 61.5 157.5t165.5 55.5q57 0 129 -33.5t98 -78.5q6 -8 6.5 -18.5t-8 -20t-20.5 -9.5q-8 0 -33.5 26t-71 51.5t-98.5 25.5q-74 0 -123 -36t-49 -107v-347h207q10 0 19.5 -8t9.5 -20.5t-9.5 -20.5t-19.5 -8h-207v-629q0 -10 -8 -19 t-20.5 -9t-20.5 9t-8 19v629h-131q-29 0 -29 28.5z" />
<glyph unicode="g" horiz-adv-x="935" d="M131 331.5q0 143.5 94 250t236 106.5q84 0 157.5 -44t118.5 -118v117q0 12 9.5 20.5t19.5 8.5q29 0 29 -29v-819q0 -25 -15 -53q-51 -131 -223 -164q-35 -8 -82 -8q-63 0 -147 27.5t-119 70.5q-10 10 -10 20q0 12 9 20.5t19 8.5q4 0 37 -22.5t90.5 -45t120.5 -22.5 q35 0 72 6q135 27 178 121q12 31 12 41v313q-45 -74 -118.5 -118t-157.5 -44q-141 0 -235.5 106.5t-94.5 250zM188 332q0 -119 78 -209t195 -90t194.5 90t77.5 209t-77.5 209t-194.5 90t-195 -90t-78 -209z" />
<glyph unicode="h" horiz-adv-x="833" d="M141 16v1198q0 10 8.5 19.5t20.5 9.5t20.5 -9t8.5 -20v-677q37 68 100 107.5t139 39.5q121 0 192.5 -90t71.5 -213v-365q0 -12 -9 -20t-19 -8q-29 0 -29 28v365q0 100 -54 173t-153 73q-125 0 -187 -91q-55 -81 -55 -191q0 -14 1 -30v-12l2 -12v-275q0 -29 -29 -29 t-29 29z" />
<glyph unicode="i" horiz-adv-x="376" d="M141 868q0 20 13.5 33.5t33.5 13.5q18 0 33 -13t15 -34q0 -18 -14.5 -31.5t-33.5 -13.5q-20 0 -33.5 13.5t-13.5 31.5zM160 16v623q0 10 8 19.5t20 9.5q10 0 19.5 -9.5t9.5 -19.5v-623q0 -10 -9 -19t-20 -9q-12 0 -20 9t-8 19z" />
<glyph unicode="j" horiz-adv-x="389" d="M-23 -369q0 25 29 29q80 8 115 45q53 59 53 168v766q0 10 8 19.5t21 9.5q10 0 19 -9.5t9 -19.5v-772q0 -113 -58 -188.5t-167 -75.5q-10 0 -19.5 8t-9.5 20zM156 868q0 20 13 33.5t34 13.5q18 0 31.5 -13t13.5 -34q0 -18 -13.5 -31.5t-31.5 -13.5q-20 0 -33.5 13.5 t-13.5 31.5z" />
<glyph unicode="k" horiz-adv-x="745" d="M141 14v1200q0 10 8.5 19.5t20.5 9.5t20.5 -9t8.5 -20v-858l385 316q8 8 18 8t19.5 -9t9.5 -20q0 -16 -10 -22l-259 -213l275 -385q4 -8 4 -17q0 -29 -29 -28q-16 0 -22 12l-273 381l-118 -98v-267q0 -10 -8.5 -19t-20.5 -9t-20.5 9t-8.5 19z" />
<glyph unicode="l" horiz-adv-x="339" d="M141 14v1200q0 10 8.5 19.5t20.5 9.5t20.5 -9t8.5 -20v-1200q0 -10 -8.5 -19t-20.5 -9t-20.5 9t-8.5 19z" />
<glyph unicode="m" horiz-adv-x="1335" d="M141 16v627q0 29 29 29t29 -29v-104q82 145 239 145q86 0 150.5 -49t93.5 -133q37 82 104.5 132t153.5 50q121 0 192.5 -89t71.5 -212v-367q0 -12 -9 -20t-19 -8q-29 0 -29 28v367q0 100 -54.5 172t-152.5 72q-119 0 -178.5 -101.5t-59.5 -226.5v-283q0 -12 -9 -20 t-19 -8q-29 0 -29 28v367q0 100 -54 172t-153 72q-125 0 -184 -88q-56 -82 -56 -214q0 -9 1 -18v-14v-277q0 -29 -29 -29t-29 29z" />
<glyph unicode="n" horiz-adv-x="831" d="M141 18v627q0 29 29 29t29 -29v-100q86 143 237 143q121 0 192.5 -90t71.5 -213v-365q0 -12 -9 -20t-19 -8q-29 0 -29 28v365q0 100 -54 173t-153 73q-121 0 -179 -92.5t-58 -233.5v-287q0 -29 -29 -29t-29 29z" />
<glyph unicode="o" horiz-adv-x="923" d="M131 331.5q0 143.5 94 250t235.5 106.5t237 -107.5t95.5 -248.5q0 -143 -95.5 -250t-237 -107t-235.5 106.5t-94 250zM188 332q0 -119 78 -209t195 -90t194.5 90t77.5 209t-77.5 208t-194.5 89t-195 -90t-78 -207z" />
<glyph unicode="p" horiz-adv-x="946" d="M141 -375v1020q0 10 8.5 19.5t20.5 9.5t20.5 -9.5t8.5 -19.5v-139q43 82 119.5 131t166.5 49q141 0 235.5 -106.5t94.5 -250t-94 -250t-236 -106.5q-90 0 -166.5 48.5t-119.5 130.5v-527q0 -29 -29 -29t-29 29zM211 330q0 -119 78 -209t196 -90q117 0 195 90t78 209 t-78 209t-195 90q-119 0 -196.5 -90t-77.5 -209z" />
<glyph unicode="q" horiz-adv-x="946" d="M131 329.5q0 143.5 94 250t236 106.5q90 0 167 -48t120 -130v137q0 10 8 19.5t20 9.5t20.5 -9.5t8.5 -19.5v-1020q0 -29 -28.5 -28.5t-28.5 28.5v527q-45 -80 -121 -129.5t-166 -49.5q-141 0 -235.5 106.5t-94.5 250zM188 330q0 -119 78 -209t195 -90t194.5 90t77.5 209 t-77.5 209t-194.5 90t-195 -90t-78 -209z" />
<glyph unicode="r" horiz-adv-x="600" d="M141 18v625q0 29 29 29t29 -29v-127q39 63 104.5 109.5t134.5 46.5q31 0 31 -27t-27 -31q-121 -18 -182 -106t-61 -215v-275q0 -29 -29 -29t-29 29z" />
<glyph unicode="s" horiz-adv-x="821" d="M131 182q0 47 35 47q23 0 22 -32q0 -168 226 -168q82 0 150.5 40t68.5 115q0 70 -77 105t-170 45t-170 52t-77 122q0 92 80 132t182 40q113 0 193 -47t80 -154q0 -27 -31 -26q-27 0 -27 30q-6 51 -32 82q-49 57 -183 58q-76 0 -140 -25t-64 -88q0 -47 51 -74.5t122.5 -41 t144.5 -31t124 -61.5t51 -118q0 -100 -85 -156.5t-191 -56.5q-117 0 -200 51t-83 160z" />
<glyph unicode="t" horiz-adv-x="620" d="M102 643q0 10 8.5 19.5t20.5 9.5h148v221q0 29 28.5 29t28.5 -29v-221h153q12 0 20.5 -9.5t8.5 -19.5q0 -29 -29 -29h-153v-602q0 -10 -8.5 -19t-20.5 -9t-20 9t-8 19v602h-148q-29 0 -29 29z" />
<glyph unicode="u" horiz-adv-x="831" d="M131 272v367q0 10 8 19.5t20.5 9.5t20.5 -9.5t8 -19.5v-367q0 -100 55.5 -172.5t151.5 -72.5q238 0 238 379v233q0 10 8 19.5t21 9.5q10 0 19 -9.5t9 -19.5v-199v-428q0 -12 -9 -20t-19 -8q-29 0 -29 28v119q-37 -74 -98.5 -118t-139.5 -44q-121 0 -192.5 89t-71.5 214z " />
<glyph unicode="v" horiz-adv-x="823" d="M131 643q0 29 29 29q18 0 26 -19l226 -585l225 585q8 18 27 19q29 0 28 -29q0 -10 -110 -296l-140 -357q-6 -18 -30 -19q-23 0 -31 19l-139 357q-111 286 -111 296z" />
<glyph unicode="w" horiz-adv-x="1257" d="M131 647q0 29 29 29q20 0 26 -19l207 -579l207 579q6 18 28.5 18.5t30.5 -18.5l205 -579l207 579q6 18 27 19q29 0 28 -29q0 -8 -105.5 -303l-125.5 -348q-4 -18 -31 -19q-25 0 -30 19l-205 573l-205 -573q-4 -18 -30.5 -18.5t-31.5 18.5l-125.5 348t-105.5 303z" />
<glyph unicode="x" horiz-adv-x="749" d="M131 16q0 8 4 17l205 299l-205 297q-4 12 -4 16q0 29 29 29q16 0 24 -12l191 -279l192 279q6 12 23 12q29 0 28 -29q0 -4 -4 -16l-204 -297l204 -299q4 -8 4 -17q0 -29 -28 -28q-16 0 -23 12l-192 281l-191 -281q-8 -12 -24 -12q-29 -1 -29 28z" />
<glyph unicode="y" horiz-adv-x="835" d="M131 645q0 29 29 29q20 0 26 -17l238 -579l225 577q6 18 27 19q29 0 29 -29q0 -10 -183.5 -481t-218.5 -555q-8 -18 -27 -19q-10 0 -19 9.5t-9 19.5t72.5 194.5t74.5 190.5q-6 6 -135 319.5t-129 321.5z" />
<glyph unicode="z" horiz-adv-x="815" d="M131 35q0 12 6 18l455 541h-412q-10 0 -19 8t-9 21q0 10 9 19t19 9h475q10 0 19.5 -9t9.5 -19.5t-8 -18.5l-455 -541h412q29 0 29 -28q0 -10 -8.5 -19.5t-20.5 -9.5h-473q-12 0 -20.5 9.5t-8.5 19.5z" />
<glyph unicode="{" horiz-adv-x="757" d="M141 420q0 31 27 31q80 0 92 11t12 95v512q0 74 50.5 126t121.5 52h144q10 0 19 -8t9 -20.5t-9 -20.5t-19 -8h-144q-49 0 -81.5 -36t-32.5 -85v-512q0 -104 -29 -137q29 -31 29 -137v-512q0 -49 32.5 -85t81.5 -36h144q10 0 19 -8.5t9 -20.5q0 -10 -9 -19.5t-19 -9.5 h-144q-72 0 -122 52.5t-50 126.5v512v61q0 25 -15 36t-56 11q-12 0 -25.5 -1t-24 6.5t-10.5 23.5z" />
<glyph unicode="|" horiz-adv-x="339" d="M141 -381v1604q0 29 29 28.5t29 -28.5v-1604q0 -29 -29 -29t-29 29z" />
<glyph unicode="}" horiz-adv-x="757" d="M141 -379q0 29 29 29h143q49 0 82 35.5t33 85.5v512q0 106 29 137q-29 33 -29 137v512q0 49 -33 85t-82 36h-143q-29 0 -29 28.5t29 28.5h143q72 0 122 -52t50 -126v-512q0 -84 12.5 -95t92.5 -11q27 0 26 -31q0 -16 -10 -23.5t-24.5 -6.5t-26.5 1q-39 0 -54.5 -11 t-15.5 -36v-61v-512q0 -74 -50 -126.5t-122 -52.5h-143q-12 0 -20.5 9.5t-8.5 19.5z" />
<glyph unicode="~" horiz-adv-x="978" d="M141 522q0 88 45 151.5t131 63.5q59 0 109.5 -31.5t79.5 -69.5t74 -69.5t98 -31.5q102 0 102 155q0 37 27 37q31 0 31 -37q0 -88 -39 -150.5t-121 -62.5q-63 0 -115.5 32t-81 69.5t-72.5 69.5t-92 32q-61 0 -89.5 -46t-28.5 -112q0 -10 -8.5 -19t-20.5 -9t-20.5 9 t-8.5 19z" />
<glyph unicode="&#xa2;" horiz-adv-x="884" d="M141 627q0 141 95.5 247.5t234.5 106.5q18 0 55 -4l70 242q4 23 27 22q12 0 20 -9t8 -20q0 -25 -69 -251q106 -41 161 -138q-10 14 -24 15q-10 0 -19.5 -9.5t-9.5 -19.5q0 -8 2 -10q-49 76 -125 106l-159 -567q27 -8 63 -8q139 0 221 125v-4q-2 -4 -2 -7q0 -10 9.5 -19 t19.5 -9q12 0 24 12q-98 -156 -272 -156q-47 0 -80 11l-74 -263q-4 -20 -26 -20q-29 0 -29 29q0 8 76 272q-90 43 -143.5 133.5t-53.5 192.5zM199 627q0 -84 42 -158t113 -111l158 564q-14 2 -41 2q-117 0 -194.5 -89t-77.5 -208z" />
<glyph unicode="&#xa3;" horiz-adv-x="1126" d="M141 639q0 27 38 30t57 -1q-39 106 -39 202q0 162 112.5 274.5t274.5 112.5q117 0 213 -64.5t143 -170.5q0 -2 1 -6t1 -6q0 -12 -9 -20.5t-20 -8.5q-16 0 -26 18q-29 53 -37 66q-98 135 -266 135q-137 0 -233.5 -96t-96.5 -234q0 -84 43 -202h268q29 0 29 -29 q0 -10 -8 -19.5t-21 -9.5h-243q82 -211 81 -334q0 -115 -51 -194q78 18 156 18q104 0 248 -49q80 -27 116 -26q23 0 50.5 12t33.5 12q10 0 19.5 -9t9.5 -20q0 -25 -40 -39t-73 -14q-43 0 -135 31q-131 45 -229 45q-137 0 -258 -51q-25 -10 -31 -10q-12 0 -24 16v4l-2 10 q-2 12 13 21.5t27 13.5q57 25 85 91.5t28 137.5q0 127 -88 334q-23 -4 -70 -1t-47 30z" />
<glyph unicode="&#xa5;" horiz-adv-x="997" d="M141 1214q0 29 29 29q18 0 25 -14l303 -574l305 574q8 14 24 14q29 0 29 -29q0 -12 -326 -620h254q29 0 29 -29q0 -27 -29 -26h-258v-158h258q12 0 20.5 -9.5t8.5 -19.5q0 -29 -29 -28h-258v-308q0 -10 -8 -19t-20 -9q-10 0 -19.5 9t-9.5 19v308h-256q-29 0 -29 28 q0 10 8.5 19.5t20.5 9.5h256v158h-256q-29 0 -29 26q0 29 29 29h254q-326 608 -326 620z" />
<glyph unicode="&#xa9;" horiz-adv-x="1585" d="M141 608q0 270 191.5 462t460 192t460 -191.5t191.5 -462.5q0 -268 -191.5 -459.5t-460 -191.5t-460 191.5t-191.5 459.5zM199 608q0 -244 174 -419t419.5 -175t419.5 175.5t174 418.5q0 246 -174 421t-419.5 175t-419.5 -175t-174 -421zM479 598q0 143 95.5 248.5 t232.5 105.5q139 0 233 -104q45 -45 45 -68q0 -27 -26 -26q-12 0 -23.5 9t-23 25.5t-13.5 20.5q-80 86 -192 86q-115 0 -192.5 -89t-77.5 -208q0 -117 77.5 -207t192.5 -90q113 0 192 86q4 4 15.5 22.5t24 30t24.5 11.5q25 0 24.5 -27t-47.5 -74q-96 -106 -233 -106 t-232.5 106.5t-95.5 247.5z" />
<glyph unicode="&#xad;" d="M141 664q0 29 29 28h405q27 0 27 -28q0 -10 -8 -19.5t-19 -9.5h-405q-12 0 -20.5 9.5t-8.5 19.5z" />
<glyph unicode="&#xae;" horiz-adv-x="1585" d="M141 612.5q0 268.5 191.5 460t460 191.5t460 -191.5t191.5 -460t-191.5 -460t-460 -191.5t-460 191.5t-191.5 460zM199 612.5q0 -245.5 174 -420t419.5 -174.5t419.5 174.5t174 420t-174 419.5t-419.5 174t-419.5 -174t-174 -419.5zM588 297v627q0 10 8 19t18 9h189 q96 0 178 -53t82 -143q0 -70 -52.5 -119t-123.5 -68q4 -6 55 -75l92 -129q41 -59 41 -68q0 -27 -28 -27q-16 0 -23 11l-199 278q-29 -2 -182 -2v-260q0 -29 -29 -29q-26 0 -26 29zM643 614h160q72 0 137.5 37t65.5 105q0 66 -66 102.5t-137 36.5h-160v-281z" />
<glyph unicode="&#xb4;" horiz-adv-x="530" d="M141 1337q0 14 9 21l190 190q6 8 20 8q10 0 19.5 -8t9.5 -20q0 -10 -8 -19l-191 -190q-10 -10 -20 -10q-12 0 -20.5 9t-8.5 19z" />
<glyph unicode="&#x2000;" horiz-adv-x="778" />
<glyph unicode="&#x2001;" horiz-adv-x="1556" />
<glyph unicode="&#x2002;" horiz-adv-x="778" />
<glyph unicode="&#x2003;" horiz-adv-x="1556" />
<glyph unicode="&#x2004;" horiz-adv-x="518" />
<glyph unicode="&#x2005;" horiz-adv-x="389" />
<glyph unicode="&#x2006;" horiz-adv-x="258" />
<glyph unicode="&#x2007;" horiz-adv-x="258" />
<glyph unicode="&#x2008;" horiz-adv-x="194" />
<glyph unicode="&#x2009;" horiz-adv-x="311" />
<glyph unicode="&#x200a;" horiz-adv-x="86" />
<glyph unicode="&#x2010;" d="M141 664q0 29 29 28h405q27 0 27 -28q0 -10 -8 -19.5t-19 -9.5h-405q-12 0 -20.5 9.5t-8.5 19.5z" />
<glyph unicode="&#x2011;" d="M141 664q0 29 29 28h405q27 0 27 -28q0 -10 -8 -19.5t-19 -9.5h-405q-12 0 -20.5 9.5t-8.5 19.5z" />
<glyph unicode="&#x2012;" d="M141 664q0 29 29 28h405q27 0 27 -28q0 -10 -8 -19.5t-19 -9.5h-405q-12 0 -20.5 9.5t-8.5 19.5z" />
<glyph unicode="&#x2013;" horiz-adv-x="985" d="M141 663.5q0 28.5 29 28.5h645q10 0 19.5 -8t9.5 -20.5t-9.5 -20.5t-19.5 -8h-645q-29 0 -29 28.5z" />
<glyph unicode="&#x2014;" horiz-adv-x="1220" d="M141 663.5q0 28.5 29 28.5h881q29 0 28.5 -28.5t-28.5 -28.5h-881q-29 0 -29 28.5z" />
<glyph unicode="&#x2018;" horiz-adv-x="397" d="M152 1032v12q-2 41 26.5 119t59.5 78q29 0 28 -29l-24 -57q-25 -57 -29 -80q33 -10 33 -43q0 -20 -13.5 -33.5t-33.5 -13.5q-18 0 -31.5 13.5t-15.5 33.5z" />
<glyph unicode="&#x2019;" horiz-adv-x="397" d="M152 1014l24 57q25 57 29 80q-33 8 -33 43q0 20 14.5 33.5t33 13.5t31.5 -13.5t15 -33.5v-12q2 -41 -26.5 -119t-59.5 -78q-28 0 -28 29z" />
<glyph unicode="&#x201c;" horiz-adv-x="579" d="M152 1032v12q-2 41 26.5 119t59.5 78q29 0 28 -29l-24 -57q-25 -57 -29 -80q33 -10 33 -43q0 -20 -13.5 -33.5t-33.5 -13.5q-18 0 -31.5 13.5t-15.5 33.5zM324 1020v12q-2 41 26.5 119t59.5 78q29 0 28 -29l-24 -57q-25 -57 -29 -80q33 -8 33 -43q0 -20 -14.5 -33.5 t-33 -13.5t-31.5 13.5t-15 33.5z" />
<glyph unicode="&#x201d;" horiz-adv-x="579" d="M152 1014l24 57q25 57 29 80q-33 8 -33 43q0 20 14.5 33.5t33 13.5t31.5 -13.5t15 -33.5v-12q2 -41 -26.5 -119t-59.5 -78q-28 0 -28 29zM324 1001l24 58q25 57 29 80q-33 10 -33 43q0 20 13.5 33.5t33.5 13.5q18 0 31.5 -13.5t15.5 -33.5v-13q2 -41 -26.5 -118.5 t-59.5 -77.5q-28 -1 -28 28z" />
<glyph unicode="&#x2022;" horiz-adv-x="729" d="M141 666q0 96 63.5 169.5t160 73.5t160 -72.5t63.5 -171t-63.5 -172t-160 -73.5t-160 74t-63.5 172z" />
<glyph unicode="&#x2026;" horiz-adv-x="1077" d="M141 39q0 18 13.5 31.5t33.5 13.5q18 0 33 -13.5t15 -31.5q0 -20 -14.5 -33.5t-33.5 -13.5q-20 0 -33.5 13.5t-13.5 33.5zM492 38.5q0 18.5 14 33t32.5 14.5t33 -14.5t14.5 -33t-14.5 -32.5t-33 -14t-32.5 14t-14 32.5zM834 38.5q0 18.5 14 33t33 14.5q20 0 33.5 -14.5 t13.5 -33t-13.5 -32.5t-33.5 -14q-18 0 -32.5 14t-14.5 32.5z" />
<glyph unicode="&#x202f;" horiz-adv-x="311" />
<glyph unicode="&#x205f;" horiz-adv-x="389" />
<glyph unicode="&#x20ac;" horiz-adv-x="960" d="M102 598q0 25 33 29t51 0q0 25 4 82q-18 -4 -53 -1t-35 29.5t39 29.5t58 -1q29 188 135 344t274 156q66 0 132.5 -33t109.5 -84q8 -6 8 -19q0 -29 -29 -28q-8 0 -36.5 26.5t-78.5 53t-106 26.5q-98 0 -177 -76.5t-119 -171t-56 -194.5h371q10 0 19 -8t9 -20.5t-9 -20.5 t-19 -8h-379q-4 -57 -4 -82h383q10 0 19 -9.5t9 -19.5q0 -12 -9 -20.5t-19 -8.5h-383q6 -115 42 -232.5t122 -215.5t200 -98q55 0 105.5 26.5t79 53t36.5 26.5q12 0 20.5 -9t8.5 -20q0 -12 -8 -20q-98 -115 -242 -115q-100 0 -183 60.5t-131 155.5t-76 194.5t-32 193.5 q-16 -4 -50 -1t-34 30z" />
<glyph unicode="&#x2122;" horiz-adv-x="1179" d="M141 1198q0 29 29 29h313q29 0 29 -29q0 -27 -29 -27h-127v-563q0 -10 -9 -19t-19 -9q-12 0 -20.5 9t-8.5 19v563h-129q-29 0 -29 27zM545 608v598q0 12 9 20.5t19 8.5q23 0 31 -23l189 -514l190 519q8 18 27 18q29 0 28 -29v-598q0 -29 -28 -28q-10 0 -19.5 8t-9.5 20 v441l-160 -439q0 -2 -2 -6q-8 -20 -26 -20q-20 0 -27 20l-164 445v-441q0 -29 -29 -28q-10 0 -19 8t-9 20z" />
<glyph unicode="&#xe000;" horiz-adv-x="675" d="M0 675h675v-675h-675v675z" />
<glyph unicode="&#xfb01;" horiz-adv-x="1128" d="M131 671.5q0 28.5 29 28.5h131v334q0 102 61.5 157.5t165.5 55.5q57 0 129 -33.5t98 -78.5q6 -8 6.5 -18.5t-8 -20t-20.5 -9.5q-8 0 -33.5 26t-71 51.5t-98.5 25.5q-74 0 -123 -36t-49 -107v-347h207q10 0 19.5 -8t9.5 -20.5t-9.5 -20.5t-19.5 -8h-207v-629q0 -10 -8 -19 t-20.5 -9t-20.5 9t-8 19v629h-131q-29 0 -29 28.5zM893 868q0 20 13.5 33.5t33.5 13.5q18 0 32.5 -13t14.5 -34q0 -18 -14.5 -31.5t-32.5 -13.5q-20 0 -33.5 13.5t-13.5 31.5zM911 16v623q0 10 8.5 19.5t20.5 9.5q10 0 19.5 -9.5t9.5 -19.5v-623q0 -10 -9.5 -19t-19.5 -9 q-12 0 -20.5 9t-8.5 19z" />
<glyph unicode="&#xfb02;" horiz-adv-x="1222" d="M131 671.5q0 28.5 29 28.5h131v334q0 102 61.5 157.5t165.5 55.5q57 0 129 -33.5t98 -78.5q6 -8 6.5 -18.5t-8 -20t-20.5 -9.5q-8 0 -33.5 26t-71 51.5t-98.5 25.5q-74 0 -123 -36t-49 -107v-347h207q10 0 19.5 -8t9.5 -20.5t-9.5 -20.5t-19.5 -8h-207v-629q0 -10 -8 -19 t-20.5 -9t-20.5 9t-8 19v629h-131q-29 0 -29 28.5zM1024 14v1200q0 10 8 19.5t20.5 9.5t20.5 -9t8 -20v-1200q0 -10 -8 -19t-20.5 -9t-20.5 9t-8 19z" />
<glyph unicode="&#xfb03;" horiz-adv-x="2142" d="M1906 868q0 20 13.5 33.5t33.5 13.5q18 0 33 -13t15 -34q0 -18 -14.5 -31.5t-33.5 -13.5q-20 0 -33.5 13.5t-13.5 31.5zM1925 16v623q0 10 8 19.5t20 9.5q10 0 19.5 -9.5t9.5 -19.5v-623q0 -10 -9 -19t-20 -9q-12 0 -20 9t-8 19zM1014 671.5q0 28.5 29 28.5h131v334 q0 102 61.5 157.5t165.5 55.5q57 0 129 -33.5t98 -78.5q6 -8 6.5 -18.5t-8 -20t-20.5 -9.5q-8 0 -33.5 26t-71 51.5t-98.5 25.5q-74 0 -123 -36t-49 -107v-347h207q10 0 19.5 -8t9.5 -20.5t-9.5 -20.5t-19.5 -8h-207v-629q0 -10 -8 -19t-20.5 -9t-20.5 9t-8 19v629h-131 q-29 0 -29 28.5zM131 671.5q0 28.5 29 28.5h131v334q0 102 61.5 157.5t165.5 55.5q57 0 129 -33.5t98 -78.5q6 -8 6.5 -18.5t-8 -20t-20.5 -9.5q-8 0 -33.5 26t-71 51.5t-98.5 25.5q-74 0 -123 -36t-49 -107v-347h207q10 0 19.5 -8t9.5 -20.5t-9.5 -20.5t-19.5 -8h-207v-629 q0 -10 -8 -19t-20.5 -9t-20.5 9t-8 19v629h-131q-29 0 -29 28.5z" />
<glyph unicode="&#xfb04;" horiz-adv-x="2105" d="M1906 14v1200q0 10 8.5 19.5t20.5 9.5t20.5 -9t8.5 -20v-1200q0 -10 -8.5 -19t-20.5 -9t-20.5 9t-8.5 19zM1014 671.5q0 28.5 29 28.5h131v334q0 102 61.5 157.5t165.5 55.5q57 0 129 -33.5t98 -78.5q6 -8 6.5 -18.5t-8 -20t-20.5 -9.5q-8 0 -33.5 26t-71 51.5 t-98.5 25.5q-74 0 -123 -36t-49 -107v-347h207q10 0 19.5 -8t9.5 -20.5t-9.5 -20.5t-19.5 -8h-207v-629q0 -10 -8 -19t-20.5 -9t-20.5 9t-8 19v629h-131q-29 0 -29 28.5zM131 671.5q0 28.5 29 28.5h131v334q0 102 61.5 157.5t165.5 55.5q57 0 129 -33.5t98 -78.5 q6 -8 6.5 -18.5t-8 -20t-20.5 -9.5q-8 0 -33.5 26t-71 51.5t-98.5 25.5q-74 0 -123 -36t-49 -107v-347h207q10 0 19.5 -8t9.5 -20.5t-9.5 -20.5t-19.5 -8h-207v-629q0 -10 -8 -19t-20.5 -9t-20.5 9t-8 19v629h-131q-29 0 -29 28.5z" />
</font>
</defs>
</svg>
